Subcategories

Murphy Blend - First Loss (1970)

Posted By: L@ter
Murphy Blend - First Loss (1970)

Murphy Blend - First Loss (1970)
EAC Rip | FLAC, IMG+CUE, LOG | 210 MB | 35,32 min | Covers
Label: Kuckuck | Heavy Rock, Progressive | Germany | RAR 3% Rec.

Murphy Blend, from Berlin, Germany, was another of the many bands that were around only long enough to release one record and then vanish into the nether of rock obscurity. Their one album, First Loss, from 1971 is considered one of the classics of Teutonic heavy rock, and though it relied on some influences by British heavy rock bands like Deep Purple, Uriah Heap and Atomic Rooster, the oddly accented vocals, innovative mix of progressive and psychedelic styles, and the dark angst put them squarely with other heavy Krautrock bands like early Jane. Bilboard.com
Exact Audio Copy V0.99 prebeta 5 from 4. May 2009

EAC extraction logfile from 24. December 2009, 16:18

Murphy Blend / First Loss

Used drive : TSSTcorpCDDVDW SH-S202J Adapter: 0 ID: 0

Read mode : Secure
Utilize accurate stream : Yes
Defeat audio cache : Yes
Make use of C2 pointers : No

Read offset correction : 6
Overread into Lead-In and Lead-Out : No
Fill up missing offset samples with silence : Yes
Delete leading and trailing silent blocks : No
Null samples used in CRC calculations : Yes
Used interface : Native Win32 interface for Win NT & 2000

Used output format : User Defined Encoder
Selected bitrate : 768 kBit/s
Quality : High
Add ID3 tag : No
Command line compressor : C:\Program Files\Exact Audio Copy\FLAC\FLAC.EXE
Additional command line options : -6 -V -T "ARTIST=%a" -T "TITLE=%t" -T "ALBUM=%g" -T "DATE=%y" -T "TRACKNUMBER=%n" -T "GENRE=%m" -T "COMMENT=%e" %s -o %d


TOC of the extracted CD

Track | Start | Length | Start sector | End sector
––––––––––––––––––––––––––––-
1 | 0:00.00 | 4:36.43 | 0 | 20742
2 | 4:36.43 | 6:00.68 | 20743 | 47810
3 | 10:37.36 | 7:34.55 | 47811 | 81915
4 | 18:12.16 | 5:37.21 | 81916 | 107211
5 | 23:49.37 | 7:50.70 | 107212 | 142531
6 | 31:40.32 | 3:47.74 | 142532 | 159630
7 | 35:28.31 | 0:03.57 | 159631 | 159912


Range status and errors

Selected range

Filename C:\Murphy Blend - First Loss.wav

Peak level 100.0 %
Range quality 99.9 %
Copy CRC E07E742D
Copy OK

No errors occurred


AccurateRip summary

Track 1 not present in database
Track 2 not present in database
Track 3 not present in database
Track 4 not present in database
Track 5 not present in database
Track 6 not present in database
Track 7 not present in database

None of the tracks are present in the AccurateRip database

End of status report


AUDIOCHECKER v2.0 beta (build 457) - by Dester - opdester@freemail.hu
~~~~~~~~~~~~~~~~~~~~~~~~~~~~~~~~~~
-=== DO NOT EDIT THIS FILE! ===-

Path: …\Murphy Blend - First Loss (1970)

1 -=- Murphy Blend - First Loss.flac -=- CDDA (100%)

224052036


Tracklist

01. At First
02. Speed Is Coming Back
03. Past Has Gone
04. Praludium - Use Your Feet
05. First Loss
06. Funny Guys
07. Happiness