Subcategories

Museo Rosenbach - Zarathustra (1973)

Posted By: L@ter
Museo Rosenbach - Zarathustra (1973)

Museo Rosenbach - Zarathustra (1973)
EAC Rip | FLAC, IMG+CUE, LOG | 227 MB | 39,38 min | Covers
BMG Records | Italian Progressive Rock | Released April 1973 | RAR 3% Rec.

Zarathustra is a progressive rock album released in 1973 by the Italian band Museo Rosenbach. It is regarded by many authorities as one of the best Italian progressive rock works of all time. Museo Rosenbach was formed around 1971 as Inaugurazione del Museo Rosenbach ("The Inauguration of Rosenbach Museum") when two bands, La Quinta Strada and Il Sistema joined forces. La Quinta Strada and Il Sistema had played mostly songs by other popular artists like Jimi Hendrix and rock groups such as The Kinks, The Animals and Steppenwolf and by Rhythm & Blues stars like Otis Redding and Wilson Pickett. The band name may have been inspired by Premiata Forneria Marconi and Banco del Mutuo Soccorso. more… Wikipedia
Exact Audio Copy V0.99 prebeta 5 from 4. May 2009

EAC extraction logfile from 25. December 2009, 0:50

Museo Rosenbach / Zarathustra

Used drive : TSSTcorpCDDVDW SH-S202J Adapter: 0 ID: 0

Read mode : Secure
Utilize accurate stream : Yes
Defeat audio cache : Yes
Make use of C2 pointers : No

Read offset correction : 6
Overread into Lead-In and Lead-Out : No
Fill up missing offset samples with silence : Yes
Delete leading and trailing silent blocks : No
Null samples used in CRC calculations : Yes
Used interface : Native Win32 interface for Win NT & 2000

Used output format : User Defined Encoder
Selected bitrate : 768 kBit/s
Quality : High
Add ID3 tag : No
Command line compressor : C:\Program Files\Exact Audio Copy\FLAC\FLAC.EXE
Additional command line options : -6 -V -T "ARTIST=%a" -T "TITLE=%t" -T "ALBUM=%g" -T "DATE=%y" -T "TRACKNUMBER=%n" -T "GENRE=%m" -T "COMMENT=%e" %s -o %d


TOC of the extracted CD

Track | Start | Length | Start sector | End sector
––––––––––––––––––––––––––––-
1 | 0:00.00 | 3:51.52 | 0 | 17376
2 | 3:51.52 | 4:47.68 | 17377 | 38969
3 | 8:39.45 | 2:40.57 | 38970 | 51026
4 | 11:20.27 | 6:31.65 | 51027 | 80416
5 | 17:52.17 | 2:54.20 | 80417 | 93486
6 | 20:46.37 | 4:04.58 | 93487 | 111844
7 | 24:51.20 | 8:28.52 | 111845 | 149996
8 | 33:19.72 | 6:18.35 | 149997 | 178381


Range status and errors

Selected range

Filename C:\Museo Rosenbach - Zarathustra.wav

Peak level 98.1 %
Range quality 100.0 %
Copy CRC 999EA185
Copy OK

No errors occurred

AccurateRip summary

Track 1 not present in database
Track 2 not present in database
Track 3 not present in database
Track 4 not present in database
Track 5 not present in database
Track 6 not present in database
Track 7 not present in database
Track 8 not present in database

None of the tracks are present in the AccurateRip database

End of status report


AUDIOCHECKER v2.0 beta (build 457) - by Dester - opdester@freemail.hu
~~~~~~~~~~~~~~~~~~~~~~~~~~~~~~~~~~
-=== DO NOT EDIT THIS FILE! ===-

Path: …\Museo Rosenbach - Zarathustra (1973)

1 -=- Museo Rosenbach - Zarathustra.flac -=- CDDA (100%)

130962452


Tracklist

01. L'ultimo uomo
02. Il re di ieri
03. Al di là del bene e del male
04. Superuomo
05. Il tempio delle clessidre
06. Degli uomini
07. Della natura
08. Dell'eterno ritorno



Joyeux Noel - Merry Christmas