Subcategories

Mushroom - Early One Morning (1973)

Posted By: L@ter
Mushroom - Early One Morning (1973)

Mushroom - Early One Morning (1973)
EAC Rip | FLAC, IMG+CUE, LOG | 258 MB | 40,23 min | Covers
Label: Radioactive (2006) | Psychedelic Folk, Rock | RAR 3% Rec.

This Dublin group's sole and rare album, 1973's Early One Morning…., provided an interesting indie-type spin on the British Isles folk-rock style of the early '70s. Though heavily indebted in some ways to the rock-up-traditional-Celtic-folk approach pioneered by Fairport Convention and Steeleye Span, it added more psychedelic, progressive, and pop influences than groups of the sort customarily used. The violin, tin whistle, harpsichord, recorder, and bodhran supplied some of the more traditional elements, yet the arrangements were eclectic enough to also encompass organ, electric mandolin, and even some Moog. While there was a certain naïvete to both the material and the production, the songs were fairly strong, balancing some hard-charging rocked-up folk with wistful, quieter ballads. Mushroom released a few other tracks on singles around this period, but otherwise never recorded again, the album becoming a highly sought-after collectible selling for as much as several hundred pounds. ~ Richie Unterberger, All Music Guide. Amazon.com
Exact Audio Copy V0.99 prebeta 5 from 4. May 2009

EAC extraction logfile from 25. December 2009, 15:46

Mushroom / Early One Morning

Used drive : TSSTcorpCDDVDW SH-S202J Adapter: 0 ID: 0

Read mode : Secure
Utilize accurate stream : Yes
Defeat audio cache : Yes
Make use of C2 pointers : No

Read offset correction : 6
Overread into Lead-In and Lead-Out : No
Fill up missing offset samples with silence : Yes
Delete leading and trailing silent blocks : No
Null samples used in CRC calculations : Yes
Used interface : Native Win32 interface for Win NT & 2000

Used output format : User Defined Encoder
Selected bitrate : 768 kBit/s
Quality : High
Add ID3 tag : No
Command line compressor : C:\Program Files\Exact Audio Copy\FLAC\FLAC.EXE
Additional command line options : -6 -V -T "ARTIST=%a" -T "TITLE=%t" -T "ALBUM=%g" -T "DATE=%y" -T "TRACKNUMBER=%n" -T "GENRE=%m" -T "COMMENT=%e" %s -o %d


TOC of the extracted CD

Track | Start | Length | Start sector | End sector
––––––––––––––––––––––––––––-
1 | 0:00.00 | 2:36.23 | 0 | 11722
2 | 2:36.23 | 4:20.27 | 11723 | 31249
3 | 6:56.50 | 3:53.71 | 31250 | 48795
4 | 10:50.46 | 3:46.38 | 48796 | 65783
5 | 14:37.09 | 3:08.72 | 65784 | 79955
6 | 17:46.06 | 2:22.49 | 79956 | 90654
7 | 20:08.55 | 5:39.64 | 90655 | 116143
8 | 25:48.44 | 2:44.20 | 116144 | 128463
9 | 28:32.64 | 3:29.61 | 128464 | 144199
10 | 32:02.50 | 3:59.28 | 144200 | 162152
11 | 36:02.03 | 4:21.67 | 162153 | 181794


Range status and errors

Selected range

Filename C:\Mushroom - Early One Morning.wav

Peak level 99.3 %
Range quality 100.0 %
Copy CRC 5B7DFE60
Copy OK

No errors occurred


AccurateRip summary

Track 1 not present in database
Track 2 not present in database
Track 3 not present in database
Track 4 not present in database
Track 5 not present in database
Track 6 not present in database
Track 7 not present in database
Track 8 not present in database
Track 9 not present in database
Track 10 not present in database
Track 11 not present in database

None of the tracks are present in the AccurateRip database

End of status report


AUDIOCHECKER v2.0 beta (build 457) - by Dester - opdester@freemail.hu
~~~~~~~~~~~~~~~~~~~~~~~~~~~~~~~~~~
-=== DO NOT EDIT THIS FILE! ===-

Path: …\Mushroom - Early One Morning (1973)

1 -=- Mushroom - Early One Morning.flac -=- CDDA (100%)

181037124


Tracklist

01. Early One Morning
02. The Liathdan
03. Crying
04. Unborn Child
05. Johnny The Jumper
06. Potters Wheel
08. Standing Alone
09. Devil Among The Tailors
10. Tenpenny Piece
11. Drowsey Maggie
12. King Of Alba