Subcategories

Nancy Sinatra - The Greatest Hits Of Nancy Sinatra (1996) [REPOST]

Posted By: El Misha
Nancy Sinatra - The Greatest Hits Of Nancy Sinatra (1996) [REPOST]

Nancy Sinatra - The Greatest Hits Of Nancy Sinatra (1996)
EAC Rip | FLAC (image & cue & log) -> 344 MB | Scans included | 59:32
Genre: Pop, Soft Rock, Country Rock | Label: Nancy's ‎– NAN CD 102

Growing up as the child of one of the greatest icons in American music can't be easy, but Nancy Sinatra managed to create a sound and style for herself fully separate from that of her (very) famous father, and her sexy but strong-willed persona has endured with nearly the same strength as the image of the Chairman of the Board.
Nancy Sinatra was born in the Summer of 1940, while her father, Frank Sinatra, was singing with the Tommy Dorsey Orchestra; as the daughter of show business royalty, Nancy grew up in the spotlight, and made her first appearance on television with her father in 1957. It wasn't long before Nancy developed aspirations of her own as a performer – she had studied music, dancing, and voice through much of her youth – and in 1960 she made her debut as a professional performer on a television special hosted by her father and featuring guest star Elvis Presley, then fresh out of the Army. After appearing in a number of movies and guest starring on episodic television, Nancy was eager to break into music, and she signed a deal with her father's record label, Reprise. However, her first hit single, 1966's "These Boots Are Made for Walkin'," made it clear she had the talent and moxie to make it without her father's help. Sounding both sexy and defiant, and belting out a definitive tough-chick lyric over a brassy arrangement by Bill Strange (and with the cream of L.A.'s session players behind her), "These Boots Are Made for Walkin'" was an immediate and unstoppable hit, and took the "tuff girl" posturing of the Shangri-Las and the Ronettes to a whole new level.
A number of hits followed, including "How Does That Grab You," "Sugar Town," and the theme song to the James Bond picture You Only Live Twice. Nancy also teamed up with her father for the single "Somethin' Stupid," which raced to the top of the charts in 1967. Most of Nancy's hits were produced by Lee Hazlewood, who went on to become a cult hero on his own and recorded a number of memorable duets with her, including "Sand," "Summer Wine," and the one-of-a-kind epic "Some Velvet Morning." Nancy reinforced her "bad girl" persona in 1966 with co-starring role opposite Peter Fonda in The Wild Angels, the Roger Corman film that helped kick off the biker flick cycle of the 1960s and early '70s; she also teamed up with Elvis Presley in the 1968 movie Speedway.
One More TimeNancy continued to record into the early '70s, but in 1970 she married dancer Hugh Lambert (a brief marriage to British singer and actor Tommy Sands ended in 1965), and she devoted most of her time to her new life as a wife and mother, as well as working with a number of charitable causes. In 1985, she published the book Frank Sinatra: My Father, and became increasingly active in looking after her family's affairs; she published a second book on Frank Sinatra in 1998 and currently oversees the Sinatra Family website. In 1995, Nancy returned to the recording studio with a country-flavored album called One More Time, and she helped publicize it by posing for a photo spread in Playboy magazine. Nancy launched a concert tour in support of the album, and in 2003 teamed up with Hazlewood to record a new album together, Nancy & Lee 3, which sadly was not released in the United States. However, Nancy soon returned to the recording studio at the urging of longtime fan Morrissey, and in the fall of 2004 she released a new disc simply entitled Nancy Sinatra, an ambitious set which included contributions from members of U2, Pulp, Calexico, Sonic Youth, Jon Spencer Blues Explosion, and other contemporary rock performers.
The album's release was followed by more live work from Nancy, including a memorable appearance at Little Steven's International Underground Garage Rock Festival 2004, in which she performed songs from her new album as well as "These Boots Are Made for Walkin" backed by an all-star band (including a horn section) and flanked by dozens of frugging go-go dancers.



Tracklist:

01. These Boots Are Made For Walking
02. Things (With Dean Martin)
03. Something Stupid (With Frank Sinatra)
04. Did You Ever
05. Summer Wine
06. You Only Live Twice
07. Jackson
08. Son Of A Preacher Man
09. Highway Song
10. How Does That Grab You, Darling
11. Friday's Child
12. Some Velvet Morning (With Lee Hazlewood)
13. Elusive Dreams
14. You've Lost That Lovin' Feelin'
15. Storybook Children
16. Sand
17. Tony Rome
18. Sugar Town
19. Lady Bird (With Lee Hazlewood)
20. Light My Fire

Exact Audio Copy V1.0 beta 3 from 29. August 2011
EAC extraction logfile from 8. April 2017, 15:09
Nancy Sinatra / The Greatest Hits of Nancy Sinatra
Used drive : TSSTcorpCDDVDW SH-216DB Adapter: 0 ID: 0
Read mode : Secure
Utilize accurate stream : Yes
Defeat audio cache : Yes
Make use of C2 pointers : No
Read offset correction : 6
Overread into Lead-In and Lead-Out : No
Fill up missing offset samples with silence : Yes
Delete leading and trailing silent blocks : No
Null samples used in CRC calculations : Yes
Used interface : Native Win32 interface for Win NT & 2000
Used output format : User Defined Encoder
Selected bitrate : 1024 kBit/s
Quality : High
Add ID3 tag : No
Command line compressor : C:\Program Files (x86)\Exact Audio Copy\Flac\flac.exe
Additional command line options : -V -8 -T "Date=%year%" -T "Genre=%genre%" %source%
TOC of the extracted CD
Track | Start | Length | Start sector | End sector
––––––––––––––––––––––––––––-
1 | 0:00.00 | 2:40.52 | 0 | 12051
2 | 2:40.52 | 2:42.73 | 12052 | 24274
3 | 5:23.50 | 2:39.70 | 24275 | 36269
4 | 8:03.45 | 2:54.62 | 36270 | 49381
5 | 10:58.32 | 3:40.68 | 49382 | 65949
6 | 14:39.25 | 2:54.60 | 65950 | 79059
7 | 17:34.10 | 2:47.62 | 79060 | 91646
8 | 20:21.72 | 2:51.13 | 91647 | 104484
9 | 23:13.10 | 3:26.47 | 104485 | 119981
10 | 26:39.57 | 2:29.43 | 119982 | 131199
11 | 29:09.25 | 2:24.67 | 131200 | 142066
12 | 31:34.17 | 3:37.15 | 142067 | 158356
13 | 35:11.32 | 3:13.15 | 158357 | 172846
14 | 38:24.47 | 3:20.33 | 172847 | 187879
15 | 41:45.05 | 3:08.02 | 187880 | 201981
16 | 44:53.07 | 3:43.53 | 201982 | 218759
17 | 48:36.60 | 2:23.45 | 218760 | 229529
18 | 51:00.30 | 2:22.52 | 229530 | 240231
19 | 53:23.07 | 3:02.15 | 240232 | 253896
20 | 56:25.22 | 3:07.23 | 253897 | 267944
Range status and errors
Selected range
Filename L:\Private\My Audio Ripps\ CD - RIPS\Nancy Sinatra - The Greatest Hits Of\Nancy Sinatra - The Greatest Hits of Nancy Sinatra.wav
Peak level 100.0 %
Extraction speed 3.0 X
Range quality 100.0 %
Test CRC 128B7EBC
Copy CRC 128B7EBC
Copy OK
No errors occurred
AccurateRip summary
Track 1 accurately ripped (confidence 6) [31A9A726] (AR v2)
Track 2 accurately ripped (confidence 6) [9C5B1CFF] (AR v2)
Track 3 accurately ripped (confidence 6) [C247A88B] (AR v2)
Track 4 accurately ripped (confidence 6) [11A0D7FE] (AR v2)
Track 5 accurately ripped (confidence 6) [80908F13] (AR v2)
Track 6 accurately ripped (confidence 6) [74EE2F17] (AR v2)
Track 7 accurately ripped (confidence 6) [0B81E060] (AR v2)
Track 8 accurately ripped (confidence 6) [B0149B30] (AR v2)
Track 9 accurately ripped (confidence 6) [FEBD00EE] (AR v2)
Track 10 accurately ripped (confidence 6) [68370C86] (AR v2)
Track 11 accurately ripped (confidence 6) [144B44CD] (AR v2)
Track 12 accurately ripped (confidence 6) [2D7ED420] (AR v2)
Track 13 accurately ripped (confidence 6) [E2DB2660] (AR v2)
Track 14 accurately ripped (confidence 6) [7B3565D2] (AR v2)
Track 15 accurately ripped (confidence 6) [694E8300] (AR v2)
Track 16 accurately ripped (confidence 6) [D3CCBA6D] (AR v2)
Track 17 accurately ripped (confidence 6) [8E0326DC] (AR v2)
Track 18 accurately ripped (confidence 6) [17C8FFAF] (AR v2)
Track 19 accurately ripped (confidence 6) [D36F68DF] (AR v2)
Track 20 accurately ripped (confidence 6) [EF6D4A50] (AR v2)
All tracks accurately ripped
End of status report
==== Log checksum 6928402AFA79518ECADD4B501186394F8AB888F942E01861B4DE7E1776B216E0 ====


Nancy Sinatra - The Greatest Hits Of Nancy Sinatra (1996) [REPOST]