Tags
Language
Tags

Nancy Wilson - But Beautiful (1969) {Capitol Jazz CDP 7928682 rel 1989}

Posted By: ruskaval
Nancy Wilson - But Beautiful (1969) {Capitol Jazz CDP 7928682 rel 1989}

Nancy Wilson - But Beautiful (1969) {Capitol Jazz CDP 7928682 rel 1989}
EAC rip (secure mode) | FLAC (tracks)+CUE+LOG -> 209 Mb | MP3 @320 -> 94 Mb
Full Artwork @ 300 dpi (jpg) -> 10 Mb | 5% repair rar
© 1969, 1989 Capitol Jazz | CDP 7 92868 2
Jazz / Classical Jazz / Vocal Jazz / Ballads

One of the greatest Nancy Wilson albums of the 60s – a small combo jazz date, done with a style that's different than some of Wilson's larger sessions of the time! The group has a relaxed, easygoing feel – and Wilson slides in with a style that's a lot more laidback and subtle than on other Capitol dates – almost the mellow feel of a late 50s Dakota Staton date, but still song with all the careful class that Nancy brings to her vocals! The group's a quartet, led by pianist Hank Jones – and featuring Gene Bertoncini on guitar, Ron Carter on bass, and Grady Tate on drums.

Personnel:

Nancy Wilson – vocals
Hank Jones – piano
Gene Bertoncini – guitar
Ron Carter – double bass
Grady Tate – drums

Recorded: November 4/5/6 1969, NYC.

Track Listing:

01 - Prelude To A Kiss
02 - For Heaven's Sake
03 - Happiness Is Just A Thing Called Joe
04 - I'll Walk Alone
05 - Supper Time
06 - But Beautiful
07 - Oh Look At Me Now
08 - Glad To Be Unhappy
09 - In A Sentimental Mood
10 - I Thought About You
11 - Easy Living
12 - Do It Again
13 - Darn That Dream

Exact Audio Copy V0.99 prebeta 4 from 23. January 2008

EAC extraction logfile from 16. September 2009, 21:13

Nancy Wilson / But Beautiful

Used drive : TSSTcorpCDDVDW SH-S203N Adapter: 0 ID: 2

Read mode : Secure
Utilize accurate stream : Yes
Defeat audio cache : Yes
Make use of C2 pointers : No

Read offset correction : 6
Overread into Lead-In and Lead-Out : No
Fill up missing offset samples with silence : Yes
Delete leading and trailing silent blocks : No
Null samples used in CRC calculations : Yes
Used interface : Installed external ASPI interface
Gap handling : Appended to previous track

Used output format : User Defined Encoder
Selected bitrate : 768 kBit/s
Quality : High
Add ID3 tag : No
Command line compressor : C:\Program Files\Exact Audio Copy\Flac\flac.exe
Additional command line options : -8 -V -T "ARTIST=%a" -T "TITLE=%t" -T "ALBUM=%g" -T "DATE=%y" -T "TRACKNUMBER=%n" -T "TOTALTRACKS=%x" -T "GENRE=%m" -T "ALBUMARTIST=%v" -T "ALBUM ARTIST=%v" -T "COMMENT=EAC V0.99 pb4, Secure Mode, Test & Copy, AccurateRip,


TOC of the extracted CD

Track | Start | Length | Start sector | End sector
––––––––––––––––––––––––––––-
1 | 0:00.00 | 2:45.15 | 0 | 12389
2 | 2:45.15 | 2:50.52 | 12390 | 25191
3 | 5:35.67 | 2:54.65 | 25192 | 38306
4 | 8:30.57 | 3:33.73 | 38307 | 54354
5 | 12:04.55 | 3:53.47 | 54355 | 71876
6 | 15:58.27 | 4:05.50 | 71877 | 90301
7 | 20:04.02 | 2:22.30 | 90302 | 100981
8 | 22:26.32 | 3:17.70 | 100982 | 115826
9 | 25:44.27 | 2:58.48 | 115827 | 129224
10 | 28:43.00 | 2:04.00 | 129225 | 138524
11 | 30:47.00 | 3:07.12 | 138525 | 152561
12 | 33:54.12 | 2:47.55 | 152562 | 165141
13 | 36:41.67 | 2:51.08 | 165142 | 177974


Track 1

Filename J:\New Rips\Nancy Wilson - But Beautiful (1969) [FLAC] {Capitol Jazz}\01 - Prelude To A Kiss.wav

Pre-gap length 0:00:02.00

Peak level 87.7 %
Track quality 100.0 %
Test CRC 7FFFA8C7
Copy CRC 7FFFA8C7
Accurately ripped (confidence 4) [B2297D0D]
Copy OK

Track 2

Filename J:\New Rips\Nancy Wilson - But Beautiful (1969) [FLAC] {Capitol Jazz}\02 - For Heaven's Sake.wav

Pre-gap length 0:00:02.00

Peak level 91.9 %
Track quality 99.9 %
Test CRC FDAE5FF1
Copy CRC FDAE5FF1
Accurately ripped (confidence 4) [48231C94]
Copy OK

Track 3

Filename J:\New Rips\Nancy Wilson - But Beautiful (1969) [FLAC] {Capitol Jazz}\03 - Happiness Is Just A Thing Called Joe.wav

Pre-gap length 0:00:02.56

Peak level 100.0 %
Track quality 100.0 %
Test CRC 818AC5DC
Copy CRC 818AC5DC
Accurately ripped (confidence 4) [AD3B8A21]
Copy OK

Track 4

Filename J:\New Rips\Nancy Wilson - But Beautiful (1969) [FLAC] {Capitol Jazz}\04 - I'll Walk Alone.wav

Pre-gap length 0:00:02.62

Peak level 79.1 %
Track quality 100.0 %
Test CRC B524BED6
Copy CRC B524BED6
Accurately ripped (confidence 4) [963E9ECC]
Copy OK

Track 5

Filename J:\New Rips\Nancy Wilson - But Beautiful (1969) [FLAC] {Capitol Jazz}\05 - Supper Time.wav

Pre-gap length 0:00:02.26

Peak level 86.0 %
Track quality 100.0 %
Test CRC C9C38F04
Copy CRC C9C38F04
Accurately ripped (confidence 4) [02B3E072]
Copy OK

Track 6

Filename J:\New Rips\Nancy Wilson - But Beautiful (1969) [FLAC] {Capitol Jazz}\06 - But Beautiful.wav

Pre-gap length 0:00:02.00

Peak level 75.9 %
Track quality 100.0 %
Test CRC 212AAB82
Copy CRC 212AAB82
Accurately ripped (confidence 4) [A649D053]
Copy OK

Track 7

Filename J:\New Rips\Nancy Wilson - But Beautiful (1969) [FLAC] {Capitol Jazz}\07 - Oh Look At Me Now.wav

Pre-gap length 0:00:02.29

Peak level 93.3 %
Track quality 100.0 %
Test CRC 6CDC11AC
Copy CRC 6CDC11AC
Accurately ripped (confidence 4) [13BE6C8C]
Copy OK

Track 8

Filename J:\New Rips\Nancy Wilson - But Beautiful (1969) [FLAC] {Capitol Jazz}\08 - Glad To Be Unhappy.wav

Pre-gap length 0:00:01.96

Peak level 82.8 %
Track quality 100.0 %
Test CRC 0100C8DD
Copy CRC 0100C8DD
Accurately ripped (confidence 4) [81D6C935]
Copy OK

Track 9

Filename J:\New Rips\Nancy Wilson - But Beautiful (1969) [FLAC] {Capitol Jazz}\09 - In A Sentimental Mood.wav

Pre-gap length 0:00:02.56

Peak level 89.4 %
Track quality 99.9 %
Test CRC 0342BDB3
Copy CRC 0342BDB3
Accurately ripped (confidence 4) [1597957D]
Copy OK

Track 10

Filename J:\New Rips\Nancy Wilson - But Beautiful (1969) [FLAC] {Capitol Jazz}\10 - I Thought About You.wav

Pre-gap length 0:00:02.84

Peak level 89.2 %
Track quality 100.0 %
Test CRC A676EDC8
Copy CRC A676EDC8
Accurately ripped (confidence 4) [737EC66B]
Copy OK

Track 11

Filename J:\New Rips\Nancy Wilson - But Beautiful (1969) [FLAC] {Capitol Jazz}\11 - Easy Living.wav

Pre-gap length 0:00:02.06

Peak level 86.7 %
Track quality 100.0 %
Test CRC 112169D9
Copy CRC 112169D9
Accurately ripped (confidence 4) [623FD5E4]
Copy OK

Track 12

Filename J:\New Rips\Nancy Wilson - But Beautiful (1969) [FLAC] {Capitol Jazz}\12 - Do It Again.wav

Pre-gap length 0:00:02.49

Peak level 68.0 %
Track quality 100.0 %
Test CRC 4AEEB2B7
Copy CRC 4AEEB2B7
Accurately ripped (confidence 4) [3B7FCD57]
Copy OK

Track 13

Filename J:\New Rips\Nancy Wilson - But Beautiful (1969) [FLAC] {Capitol Jazz}\13 - Darn That Dream.wav

Pre-gap length 0:00:01.82

Peak level 86.1 %
Track quality 100.0 %
Test CRC 72EEDA24
Copy CRC 72EEDA24
Accurately ripped (confidence 4) [55F4E797]
Copy OK


All tracks accurately ripped

No errors occurred

End of status report


Nancy Wilson - But Beautiful (1969) {Capitol Jazz CDP 7928682 rel 1989}

Nancy Wilson - But Beautiful (1969) {Capitol Jazz CDP 7928682 rel 1989}



===