Subcategories

Natalia Mateo - De Profundis (2017)

Posted By: delpotro
Natalia Mateo - De Profundis (2017)

Natalia Mateo - De Profundis (2017)
EAC Rip | FLAC (tracks+log+.cue) | 00:56:53 | Scans included | 308 Mb
Vocal Jazz | Label: ACT Music

In 'De Profundis', fast rising jazz singer Natalia Mateo combines the worlds of jazz, Polish folk, and singer-songwriting into a mesmerizing game of illusion. The album is inspired by Mateo s Polish origins, by the influences of her adoptive city of Berlin, and by artists who defy convention like Björk and Joni Mitchell. Mateo captivates the listener with her intensity as much as her restraint. Judiciously sparse instrumentation creates a sense of intimacy and a unique sound. Through originals and covers, singing that can be both gentle/lyrical and angular/punchy, 'De Profundis' reveals Natalia Mateo s individuality in full.
Tracklist:
01. Bandoska
02. Eternity
03. Elegja Pielgrzyma
04. I Will Always Love You
05. Rosemary's Baby
06. Unsound
07. Prayer
08. Eksplozja Paranoja
09. Dziwny Jest Ten Świat
10. François Villon-Modlitwa

Exact Audio Copy V1.3 from 2. September 2016

EAC extraction logfile from 6. September 2017, 20:16

Natalia Mateo / De Profundis

Used drive : ATAPI iHBS112 2 Adapter: 1 ID: 1

Read mode : Secure
Utilize accurate stream : Yes
Defeat audio cache : Yes
Make use of C2 pointers : No

Read offset correction : 6
Overread into Lead-In and Lead-Out : No
Fill up missing offset samples with silence : Yes
Delete leading and trailing silent blocks : No
Null samples used in CRC calculations : Yes
Used interface : Native Win32 interface for Win NT & 2000
Gap handling : Appended to previous track

Used output format : User Defined Encoder
Selected bitrate : 128 kBit/s
Quality : High
Add ID3 tag : No
Command line compressor : C:\Program Files (x86)\Exact Audio Copy\Flac\flac.exe
Additional command line options : -8 -V -T "ARTIST=%artist%" -T "TITLE=%title%" -T "ALBUM=%albumtitle%" -T "DATE=%year%" -T "TRACKNUMBER=%tracknr%" -T "GENRE=%genre%" -T "PERFORMER=%albuminterpret%" -T "COMPOSER=%composer%" -T "ALBUMARTIST=%albumartist%" -T "DISCNUMBER=%cdnumber%" -T "TOTALDISCS=%totalcds%" -T "TOTALTRACKS=%numtracks%" -T "COMMENT=EAC Secure Mode, Test & Copy, AccurateRip, FLAC -8" %source% -o %dest%


TOC of the extracted CD

Track | Start | Length | Start sector | End sector
––––––––––––––––––––––––––––-
1 | 0:00.00 | 5:08.23 | 0 | 23122
2 | 5:08.23 | 4:13.35 | 23123 | 42132
3 | 9:21.58 | 5:54.26 | 42133 | 68708
4 | 15:16.09 | 6:02.00 | 68709 | 95858
5 | 21:18.09 | 5:09.68 | 95859 | 119101
6 | 26:28.02 | 5:45.12 | 119102 | 144988
7 | 32:13.14 | 7:27.07 | 144989 | 178520
8 | 39:40.21 | 4:59.45 | 178521 | 200990
9 | 44:39.66 | 2:40.45 | 200991 | 213035
10 | 47:20.36 | 9:33.05 | 213036 | 256015


Track 1

Filename H:\DL\Natalia Mateo - De Profundis (2017) [FLAC]\01 - Bandoska.wav

Pre-gap length 0:00:02.00

Peak level 91.3 %
Extraction speed 4.4 X
Track quality 100.0 %
Test CRC 1675C49A
Copy CRC 1675C49A
Accurately ripped (confidence 3) [246E48C2] (AR v2)
Copy OK

Track 2

Filename H:\DL\Natalia Mateo - De Profundis (2017) [FLAC]\02 - Eternity.wav

Peak level 91.5 %
Extraction speed 4.9 X
Track quality 100.0 %
Test CRC C7FA2552
Copy CRC C7FA2552
Accurately ripped (confidence 3) [1ABAFD7F] (AR v2)
Copy OK

Track 3

Filename H:\DL\Natalia Mateo - De Profundis (2017) [FLAC]\03 - Elegja Pielgrzyma.wav

Peak level 91.1 %
Extraction speed 5.7 X
Track quality 100.0 %
Test CRC 549B56EF
Copy CRC 549B56EF
Accurately ripped (confidence 3) [B8300E92] (AR v2)
Copy OK

Track 4

Filename H:\DL\Natalia Mateo - De Profundis (2017) [FLAC]\04 - I Will Always Love You.wav

Peak level 95.6 %
Extraction speed 6.3 X
Track quality 100.0 %
Test CRC 77A088F0
Copy CRC 77A088F0
Accurately ripped (confidence 3) [D80138CF] (AR v2)
Copy OK

Track 5

Filename H:\DL\Natalia Mateo - De Profundis (2017) [FLAC]\05 - Kolysanka Rosemary - Rosemary's Baby.wav

Peak level 70.7 %
Extraction speed 6.6 X
Track quality 100.0 %
Test CRC 4BFBA751
Copy CRC 4BFBA751
Accurately ripped (confidence 3) [E11854D0] (AR v2)
Copy OK

Track 6

Filename H:\DL\Natalia Mateo - De Profundis (2017) [FLAC]\06 - Unsound.wav

Peak level 93.1 %
Extraction speed 7.2 X
Track quality 100.0 %
Test CRC DD177B40
Copy CRC DD177B40
Accurately ripped (confidence 3) [81198094] (AR v2)
Copy OK

Track 7

Filename H:\DL\Natalia Mateo - De Profundis (2017) [FLAC]\07 - Prayer.wav

Peak level 93.5 %
Extraction speed 7.8 X
Track quality 100.0 %
Test CRC D06347B3
Copy CRC D06347B3
Accurately ripped (confidence 3) [9D6A287A] (AR v2)
Copy OK

Track 8

Filename H:\DL\Natalia Mateo - De Profundis (2017) [FLAC]\08 - Eksplozja Paranoja.wav

Peak level 96.2 %
Extraction speed 7.9 X
Track quality 100.0 %
Test CRC 82DF88DD
Copy CRC 82DF88DD
Accurately ripped (confidence 3) [341865D0] (AR v2)
Copy OK

Track 9

Filename H:\DL\Natalia Mateo - De Profundis (2017) [FLAC]\09 - Dziwny jest ten swiat.wav

Peak level 91.3 %
Extraction speed 7.4 X
Track quality 100.0 %
Test CRC 98BE2A93
Copy CRC 98BE2A93
Accurately ripped (confidence 3) [0E9CBEDC] (AR v2)
Copy OK

Track 10

Filename H:\DL\Natalia Mateo - De Profundis (2017) [FLAC]\10 - Francois Villon-Modlitwa.wav

Peak level 81.6 %
Extraction speed 6.7 X
Track quality 99.9 %
Test CRC B841C097
Copy CRC B841C097
Accurately ripped (confidence 3) [0CB0C5EC] (AR v2)
Copy OK


All tracks accurately ripped

No errors occurred

End of status report

–– CUETools DB Plugin V2.1.6

[CTDB TOCID: u3tmqxFLp9QGNzitRKCI8C6ylR0-] found
Submit result: already submitted
Track | CTDB Status
1 | (13/13) Accurately ripped
2 | (13/13) Accurately ripped
3 | (13/13) Accurately ripped
4 | (13/13) Accurately ripped
5 | (13/13) Accurately ripped
6 | (13/13) Accurately ripped
7 | (13/13) Accurately ripped
8 | (13/13) Accurately ripped
9 | (13/13) Accurately ripped
10 | (13/13) Accurately ripped


==== Log checksum 118C6D78B7A2FDE4DAB2982ABCC088C47ED20D6C213886656B28F22DFEC8F48F ====


Natalia Mateo - De Profundis (2017)


Thanks to the Original ripper dtromp !