Subcategories

Iannis Xenakis - Music for Keyboard instruments (2008) UPDATED

Posted By: ooliver
Iannis Xenakis - Music for Keyboard instruments (2008) UPDATED

Iannis Xenakis - Music for Keyboard instruments (2008)
Daniel Grossmann, MIDI programming
Avant-Garde | EAC Rip (ape, cue, log) | 7-zip | 270 MB | RS.com
Label: NEOS | Cat. Num.: 10707 | CD 55:30 | Complete Scans

This is the first recording of Xenakis' music for keyboard instruments realised by computer - unplayable by human hands!
(from the attached booklet)

Music for Keyboard Instruments - (5 tracks) 56:08
01 Herma, for piano [1961] 06:49
02 Mists, for piano [1981] 11:22
03 Khoai, for harpsichord [1976] 14:32
04 Evryali, for piano [1973] 07:53
05 Naama, for harpsichord [1984] 15:32

NEOS Music NEOS 10707 (2008)

Exact Audio Copy V0.99 prebeta 4 from 23. January 2008

EAC extraction logfile from 10. March 2009, 15:42

Xenakis / Music for Keyboard

Used drive : HL-DT-STDVDRAM GSA-H44N Adapter: 3 ID: 0

Read mode : Secure
Utilize accurate stream : Yes
Defeat audio cache : No
Make use of C2 pointers : No

Read offset correction : 667
Overread into Lead-In and Lead-Out : No
Fill up missing offset samples with silence : Yes
Delete leading and trailing silent blocks : No
Null samples used in CRC calculations : Yes
Used interface : Installed external ASPI interface

Used output format : Internal WAV Routines
Sample format : 44.100 Hz; 16 Bit; Stereo


TOC of the extracted CD

Track | Start | Length | Start sector | End sector
––––––––––––––––––––––––––––-
1 | 0:00.00 | 6:49.37 | 0 | 30711
2 | 6:49.37 | 11:22.09 | 30712 | 81870
3 | 18:11.46 | 14:32.10 | 81871 | 147280
4 | 32:43.56 | 7:53.45 | 147281 | 182800
5 | 40:37.26 | 15:32.42 | 182801 | 252742


Range status and errors

Selected range

Filename I:\ Torrent\Music\ My uploads\43-44 29-30 09-10 Xenakis\46 Music for keyboard\Xenakis - Music for Keyboard.wav

Peak level 100.0 %
Range quality 100.0 %
Copy CRC 06F31EE3
Copy OK

No errors occurred


AccurateRip summary

Track 1 not present in database
Track 2 not present in database
Track 3 not present in database
Track 4 not present in database
Track 5 not present in database

None of the tracks are present in the AccurateRip database

End of status report


Packed via 7.Zip, served by RS, redirected through tinyurl:
Part1
Part2
Part3




Toy Piano? Piano Rolls? Player Piano? Orgue de Barbarie? Hal 9000? etc.?
No! Enjoy the shining Xenakis genius