Subcategories
Tags
Language
Tags

New Moon Jelly Roll Freedom Rockers - Volume 1 (2020)

Posted By: delpotro
New Moon Jelly Roll Freedom Rockers - Volume 1 (2020)

New Moon Jelly Roll Freedom Rockers - Volume 1 (2020)
EAC Rip | FLAC (tracks+log+.cue) - 244 Mb | MP3 CBR 320 kbps - 108 Mb | 00:46:13
Blues, Delta Blues | Label: Story Plain Records

The New Moon Jelly Roll Freedom Rockers originated back in January 2007 when musician brothers Luther & Cody Dickinson sat down for a guitar jam with ex-Squirrel Nut Zippers leader Jimbo Mathus along with Blues Greats Charlie Musselwhite, Alvin Youngblood Hart and the late Memphis pianist, producer and all around musical stylist Jim Dickinson gathered for a recording under the group name of the New Moon Jelly Roll Freedom Rockers.

For more than 12 years that recording’s existence was mentioned only obscurely in interviews, and referenced as a great old-school recording by those few witnesses. It was done in one take off the floor over a couple of late nights, where they all sat in one big circle in the studio and played quietly amongst the microphones, taking turns singing out in the room and improvising on the spot. Despite the fact that Jim Dickinson finished production before his death in summer 2009, that album just hung out in the archives, waiting. It is a testament to the great experience and talent of these esteemed performers that they could casually conjure a recording of this quality out of the ether this way. Sounding as if you are right there in the room with them with between-song banter and commentary, the classic structures of the Blues, being pulled together and teased apart by some of the most award-decorated members of the Blues Elite. This album crosses the generations of new Blues-Rockers and Classic Blues Statesmen.

The first 10 tracks are now available on Stony Plain Records, with the next 11 songs coming in spring 2021 on volume 2.
Tracklist:
1. Blues, Why You Worry Me? (feat. Charlie Musselwhite) (06:57)
2. Pony Blues (feat. Alvin Youngblood Hart) (04:07)
3. Night Time (feat. Jimbo Mathus) (05:05)
4. Come On Down To My House (feat. Jim Dickinson) (04:16)
5. K.C. Moan (feat. Charlie Musselwhite) (03:06)
6. Let's Work Together (feat. Jim Dickinson) (04:24)
7. Strange Land (feat. Charlie Musselwhite) (06:49)
8. Shake It And Brake It (feat. Jimbo Mathus) (02:50)
9. Stone Free (feat. Alvin Youngblood Hart) (03:40)
10. Stop And Listen Blues (feat. Alvin Youngblood Hart) (04:55)

Exact Audio Copy V1.6 from 23. October 2020

EAC extraction logfile from 16. February 2021, 22:28

New Moon Jelly Roll Freedom Rockers / Volume 1

Used drive : HP DVD Writer 1070r Adapter: 1 ID: 0

Read mode : Secure
Utilize accurate stream : Yes
Defeat audio cache : Yes
Make use of C2 pointers : No

Read offset correction : 6
Overread into Lead-In and Lead-Out : No
Fill up missing offset samples with silence : Yes
Delete leading and trailing silent blocks : No
Null samples used in CRC calculations : Yes
Used interface : Native Win32 interface for Win NT & 2000
Gap handling : Appended to previous track

Used output format : User Defined Encoder
Selected bitrate : 1024 kBit/s
Quality : High
Add ID3 tag : No
Command line compressor : C:\Program Files (x86)\Exact Audio Copy\Flac\flac.exe
Additional command line options : -8 -V -T "ARTIST=%artist%" -T "TITLE=%title%" -T "ALBUM=%albumtitle%" -T "DATE=%year%" -T "TRACKNUMBER=%tracknr%" -T "GENRE=%genre%" -T "PERFORMER=%albuminterpret%" -T "COMPOSER=%composer%" -T "ALBUMARTIST=%albumartist%" -T "DISCNUMBER=%cdnumber%" -T "TOTALDISCS=%totalcds%" -T "TOTALTRACKS=%numtracks%" -T "COMMENT=%comment%" %source% -o %dest%


TOC of the extracted CD

Track | Start | Length | Start sector | End sector
––––––––––––––––––––––––––––-
1 | 0:00.00 | 6:55.28 | 0 | 31152
2 | 6:55.28 | 4:07.39 | 31153 | 49716
3 | 11:02.67 | 5:05.58 | 49717 | 72649
4 | 16:08.50 | 4:16.50 | 72650 | 91899
5 | 20:25.25 | 3:06.67 | 91900 | 105916
6 | 23:32.17 | 4:24.11 | 105917 | 125727
7 | 27:56.28 | 6:49.69 | 125728 | 156471
8 | 34:46.22 | 2:50.53 | 156472 | 169274
9 | 37:37.00 | 3:40.58 | 169275 | 185832
10 | 41:17.58 | 4:55.65 | 185833 | 208022


Track 1

Filename E:\Redacted\New Moon Jelly Roll Freedom Rockers ‎- Volume 1 (2020) (Flac)\01. Blues, Why You Worry Me.wav

Pre-gap length 0:00:02.00

Peak level 97.1 %
Extraction speed 2.0 X
Track quality 100.0 %
Test CRC C158DBF9
Copy CRC C158DBF9
Accurately ripped (confidence 2) [272EC15A] (AR v2)
Copy OK

Track 2

Filename E:\Redacted\New Moon Jelly Roll Freedom Rockers ‎- Volume 1 (2020) (Flac)\02. Pony Blues.wav

Peak level 97.1 %
Extraction speed 2.2 X
Track quality 100.0 %
Test CRC C1F3A5C1
Copy CRC C1F3A5C1
Accurately ripped (confidence 2) [B9D3548E] (AR v2)
Copy OK

Track 3

Filename E:\Redacted\New Moon Jelly Roll Freedom Rockers ‎- Volume 1 (2020) (Flac)\03. Night Time.wav

Peak level 97.1 %
Extraction speed 1.9 X
Track quality 99.9 %
Test CRC 3F83C63A
Copy CRC 3F83C63A
Accurately ripped (confidence 2) [1A970ED3] (AR v2)
Copy OK

Track 4

Filename E:\Redacted\New Moon Jelly Roll Freedom Rockers ‎- Volume 1 (2020) (Flac)\04. Come On Down To My House.wav

Peak level 97.1 %
Extraction speed 2.6 X
Track quality 100.0 %
Test CRC 50551EC3
Copy CRC 50551EC3
Accurately ripped (confidence 2) [232726C8] (AR v2)
Copy OK

Track 5

Filename E:\Redacted\New Moon Jelly Roll Freedom Rockers ‎- Volume 1 (2020) (Flac)\05. K.C. Moan.wav

Peak level 97.1 %
Extraction speed 1.8 X
Track quality 99.9 %
Test CRC 6240D8C2
Copy CRC 6240D8C2
Accurately ripped (confidence 2) [E28F9B76] (AR v2)
Copy OK

Track 6

Filename E:\Redacted\New Moon Jelly Roll Freedom Rockers ‎- Volume 1 (2020) (Flac)\06. Let's Work Together.wav

Peak level 97.1 %
Extraction speed 2.9 X
Track quality 100.0 %
Test CRC C4ADA6AC
Copy CRC C4ADA6AC
Accurately ripped (confidence 2) [D3D1CABA] (AR v2)
Copy OK

Track 7

Filename E:\Redacted\New Moon Jelly Roll Freedom Rockers ‎- Volume 1 (2020) (Flac)\07. Strange Land.wav

Peak level 97.1 %
Extraction speed 3.2 X
Track quality 100.0 %
Test CRC F7412FF0
Copy CRC F7412FF0
Accurately ripped (confidence 2) [B9C0A6F7] (AR v2)
Copy OK

Track 8

Filename E:\Redacted\New Moon Jelly Roll Freedom Rockers ‎- Volume 1 (2020) (Flac)\08. Shake It And Brake It.wav

Peak level 91.7 %
Extraction speed 3.0 X
Track quality 100.0 %
Test CRC 77612E55
Copy CRC 77612E55
Accurately ripped (confidence 2) [44C72A6C] (AR v2)
Copy OK

Track 9

Filename E:\Redacted\New Moon Jelly Roll Freedom Rockers ‎- Volume 1 (2020) (Flac)\09. Stone Free.wav

Peak level 97.1 %
Extraction speed 2.3 X
Track quality 99.9 %
Test CRC 44B5637B
Copy CRC 44B5637B
Accurately ripped (confidence 2) [1FB581B5] (AR v2)
Copy OK

Track 10

Filename E:\Redacted\New Moon Jelly Roll Freedom Rockers ‎- Volume 1 (2020) (Flac)\10. Stop And Listen Blues.wav

Peak level 97.1 %
Extraction speed 3.5 X
Track quality 100.0 %
Test CRC 20C2227E
Copy CRC 20C2227E
Accurately ripped (confidence 2) [A315A128] (AR v2)
Copy OK


All tracks accurately ripped

No errors occurred

End of status report

–– CUETools DB Plugin V2.1.6

[CTDB TOCID: 87F82n_aWBQgWUJdh44Pay_IPrc-] found
Submit result: 87F82n_aWBQgWUJdh44Pay_IPrc- has been confirmed
Track | CTDB Status
1 | ( 7/10) Accurately ripped
2 | ( 7/10) Accurately ripped
3 | ( 7/10) Accurately ripped
4 | ( 7/10) Accurately ripped
5 | ( 7/10) Accurately ripped
6 | ( 7/10) Accurately ripped
7 | ( 7/10) Accurately ripped
8 | ( 7/10) Accurately ripped
9 | ( 7/10) Accurately ripped
10 | ( 7/10) Accurately ripped


==== Log checksum F1EDC21CD7D0E251C0376F7FE7BA56D71441FEF98F12879E46BB2B8F19BA8A7E ====

Thanks to the Original ripper !