Subcategories

Nicole Willis; The Soul Investigators - Happiness in Every Style (2015)

Posted By: aasana
Nicole Willis; The Soul Investigators - Happiness in Every Style (2015)

Nicole Willis & The Soul Investigators - Happiness In Every Style (2015)
EAC Rip | FLAC (tracks+.cue) | 00:50:10 | 289,04 MB
Jazz; Soul | Label: Timmion

On October 2, Nicole Willis returns with her third album accompanied by the Finland-based Soul Investigators since 2005: Happiness In Every Style. As the name suggests, the new release her fifth solo outing since 2000 offers plenty of variety and lands on a sunnier side of the street, following her darker, acclaimed 2013 release, Tortured Soul. Nicole and the Soul Investigators offer upbeat modern soul and embrace sophisticated melodies alongside their highly evolved raw funk sound, whose wares share vinyl shelf space with fans of Sharon Jones and Charles Bradley. To get a taste of the new album s strength and appeal, one has only to put on the first single, Paint Me In A Corner, Let's Communicate or the ebullient One In a Million to hear the vocalist s energy and skill, honed by decades in the music game. From minor key ballads such as Thief In The Night to the unapologetically poppy Angel, the new album is a perfect showcase not only for her sweet, evocative, powerful voice, but also excellent songwriting by Willis and the group. Nicole Willis soulful voice is one of a kind, and her lyrics are full of insight. Born in Brooklyn, NY, she first became known as a vocalist in the mid-80s working in London with the group Washington Week In Review (including future members of the Brand New Heavies) as well as New York groups Hello Strangers and Blue Period. She was a guest vocalist on tour with the UK pop group The The during the late 80s, and even spent time in an early version of the group Deee-Lite. In the 90s she helped form the NYC-based acid jazz and soul group Repercussions, releasing two albums with them: Earth & Heaven (1995, Warner Bros.) and Charmed Life (1997). During that same era, she dueted via the Repercussions with Curtis Mayfield on the song Let s Do It Again (from the 1994 Warner Brothers album, A Tribute To Curtis Mayfield), and collaborated with the UK dance group Leftfield, on the single Swords Nicole has resided in Helsinki, Finland since the mid-2000s with her partner producer and musician Jimi Tenor. In addition to his collaborative assistance with her solo work, they have released two house / electronic albums since 2013 under the group name Cola & Jimmu. (As an aside, Tenor performs flute, vibes, background vocals and of course tenor sax on Nicole s latest album). In addition to her wide-ranging and renowned musical work, she is also an accomplished painter. The Helsinki-based Soul Investigators have performed together since 1998, and have released numerous singles, including soul and funk instrumentals as well as collaborations with a range of vocalists. Group members Jukka Sarapaa (drums) and Sami Kantelinen (bass) also run the renowned, vinyl-centric Timmion Records label. Nicole Willis & The Soul Investigators first album together, Keep Reachin Up was released on Timmion Records in 2005, and it was a critical success among soul enthusiasts around the globe. The hit single Feeling Free was chosen as Track of the Year by renowned DJ Gilles Peterson in his World Wide Awards in 2006. Keep Reachin Up was also selected as the Urban Album of the Year by MOJO magazine. After the album was released, Nicole and the band performed consistently in Europe throughout the late 00s. In the following years the record has also been released in France, UK, Japan and North America. In early 2012, President Barack Obama chose the song Keep Reachin Up for his re-election campaign s official Spotify playlist. Nicole Willis & the Soul Investigators released their sophomore effort, Tortured Soul, in early 2013. The band s signature soul sound was still clearly in the mix, but the new album also introduced a harder rock & blues edge. Songs such as Break Free and Time To Get Business Straig

Tracks:

01. One in a Million (4:10)
02. Where Are You Now (5:44)
03. Let's Communicate (4:02)
04. Angel (5:03)
05. Bad Viberations (3:26)
06. Together We Climb (4:53)
07. Open Sky (2:50)
08. Paint Me in a Corner (4:01)
09. Thief in the Night (4:59)
10. Vulture's Prayer (4:14)
11. Hot Sauce (6:20)

Exact Audio Copy V1.1 from 23. June 2015

EAC extraction logfile from 26. November 2015, 20:59

Nicole Willis & The Soul Investigators / Happiness In Every Style

Used drive : TSSTcorpCDDVDW SE-208GB Adapter: 1 ID: 0

Read mode : Secure
Utilize accurate stream : Yes
Defeat audio cache : Yes
Make use of C2 pointers : No

Read offset correction : 6
Overread into Lead-In and Lead-Out : No
Fill up missing offset samples with silence : Yes
Delete leading and trailing silent blocks : No
Null samples used in CRC calculations : Yes
Used interface : Native Win32 interface for Win NT & 2000
Gap handling : Appended to previous track

Used output format : User Defined Encoder
Selected bitrate : 1024 kBit/s
Quality : High
Add ID3 tag : No
Command line compressor : C:\Program Files (x86)\Exact Audio Copy\Flac\flac.exe
Additional command line options : -8 -V -T "ARTIST=%artist%" -T "TITLE=%title%" -T "ALBUM=%albumtitle%" -T "DATE=%year%" -T "TRACKNUMBER=%tracknr%" -T "GENRE=%genre%" -T "PERFORMER=%albuminterpret%" -T "COMPOSER=%composer%" %haslyrics%–tag-from-file=LYRICS="%lyricsfile%"%haslyrics% -T "ALBUMARTIST=%albumartist%" -T "DISCNUMBER=%cdnumber%" -T "TOTALDISCS=%totalcds%" -T "TOTALTRACKS=%numtracks%" -T "COMMENT=%comment%" %source% -o %dest%


TOC of the extracted CD

Track | Start | Length | Start sector | End sector
––––––––––––––––––––––––––––-
1 | 0:00.00 | 4:13.13 | 0 | 18987
2 | 4:13.13 | 5:46.04 | 18988 | 44941
3 | 9:59.17 | 4:05.60 | 44942 | 63376
4 | 14:05.02 | 5:06.16 | 63377 | 86342
5 | 19:11.18 | 3:28.54 | 86343 | 101996
6 | 22:39.72 | 4:55.27 | 101997 | 124148
7 | 27:35.24 | 2:54.21 | 124149 | 137219
8 | 30:29.45 | 4:03.57 | 137220 | 155501
9 | 34:33.27 | 5:02.17 | 155502 | 178168
10 | 39:35.44 | 4:17.29 | 178169 | 197472
11 | 43:52.73 | 6:17.23 | 197473 | 225770


Track 1

Filename C:\Rip\Nicole Willis & The Soul Investigators - Happiness In Every Style (2015) [FLAC]\01 - One In A Million.wav

Pre-gap length 0:00:02.00

Peak level 99.5 %
Extraction speed 2.2 X
Track quality 100.0 %
Test CRC A5FE4A4D
Copy CRC A5FE4A4D
Track not present in AccurateRip database
Copy OK

Track 2

Filename C:\Rip\Nicole Willis & The Soul Investigators - Happiness In Every Style (2015) [FLAC]\02 - Where Are You Now.wav

Pre-gap length 0:00:02.00

Peak level 99.5 %
Extraction speed 2.6 X
Track quality 100.0 %
Test CRC 68B51593
Copy CRC 68B51593
Track not present in AccurateRip database
Copy OK

Track 3

Filename C:\Rip\Nicole Willis & The Soul Investigators - Happiness In Every Style (2015) [FLAC]\03 - Let's Communicate.wav

Pre-gap length 0:00:02.00

Peak level 99.5 %
Extraction speed 2.8 X
Track quality 100.0 %
Test CRC 6C2EFB34
Copy CRC 6C2EFB34
Track not present in AccurateRip database
Copy OK

Track 4

Filename C:\Rip\Nicole Willis & The Soul Investigators - Happiness In Every Style (2015) [FLAC]\04 - Angel.wav

Pre-gap length 0:00:02.00

Peak level 99.5 %
Extraction speed 3.1 X
Track quality 100.0 %
Test CRC 03AFDD79
Copy CRC 03AFDD79
Track not present in AccurateRip database
Copy OK

Track 5

Filename C:\Rip\Nicole Willis & The Soul Investigators - Happiness In Every Style (2015) [FLAC]\05 - Bad Vibrations (Instrumental).wav

Pre-gap length 0:00:02.00

Peak level 99.5 %
Extraction speed 3.2 X
Track quality 100.0 %
Test CRC 189BC20A
Copy CRC 189BC20A
Track not present in AccurateRip database
Copy OK

Track 6

Filename C:\Rip\Nicole Willis & The Soul Investigators - Happiness In Every Style (2015) [FLAC]\06 - Togehter We Climb.wav

Pre-gap length 0:00:02.00

Peak level 99.5 %
Extraction speed 3.5 X
Track quality 100.0 %
Test CRC 19133D00
Copy CRC 19133D00
Track not present in AccurateRip database
Copy OK

Track 7

Filename C:\Rip\Nicole Willis & The Soul Investigators - Happiness In Every Style (2015) [FLAC]\07 - Open Sky.wav

Pre-gap length 0:00:02.00

Peak level 77.9 %
Extraction speed 2.9 X
Track quality 99.9 %
Test CRC 68C48451
Copy CRC 68C48451
Track not present in AccurateRip database
Copy OK

Track 8

Filename C:\Rip\Nicole Willis & The Soul Investigators - Happiness In Every Style (2015) [FLAC]\08 - Paint Me In A Corner.wav

Pre-gap length 0:00:02.00

Peak level 99.5 %
Extraction speed 3.7 X
Track quality 100.0 %
Test CRC 161AFC71
Copy CRC 161AFC71
Track not present in AccurateRip database
Copy OK

Track 9

Filename C:\Rip\Nicole Willis & The Soul Investigators - Happiness In Every Style (2015) [FLAC]\09 - Thief In The Night.wav

Pre-gap length 0:00:02.00

Peak level 93.9 %
Extraction speed 4.0 X
Track quality 100.0 %
Test CRC 695F6AAB
Copy CRC 695F6AAB
Track not present in AccurateRip database
Copy OK

Track 10

Filename C:\Rip\Nicole Willis & The Soul Investigators - Happiness In Every Style (2015) [FLAC]\10 - Vulture's Prayer (Instrumental).wav

Pre-gap length 0:00:02.00

Peak level 99.5 %
Extraction speed 4.1 X
Track quality 100.0 %
Test CRC 8B1A8401
Copy CRC 8B1A8401
Track not present in AccurateRip database
Copy OK

Track 11

Filename C:\Rip\Nicole Willis & The Soul Investigators - Happiness In Every Style (2015) [FLAC]\11 - Hot Sauce.wav

Pre-gap length 0:00:02.00

Peak level 98.5 %
Extraction speed 4.5 X
Track quality 100.0 %
Test CRC F3B93DE1
Copy CRC F3B93DE1
Track not present in AccurateRip database
Copy OK


None of the tracks are present in the AccurateRip database

No errors occurred

End of status report

–– CUETools DB Plugin V2.1.6

[CTDB TOCID: CBJZKM4i05cBMMjVa7pU0fYrbUs-] found
Submit result: CBJZKM4i05cBMMjVa7pU0fYrbUs- has been confirmed
Track | CTDB Status
1 | (2/2) Accurately ripped
2 | (2/2) Accurately ripped
3 | (2/2) Accurately ripped
4 | (2/2) Accurately ripped
5 | (2/2) Accurately ripped
6 | (2/2) Accurately ripped
7 | (2/2) Accurately ripped
8 | (2/2) Accurately ripped
9 | (2/2) Accurately ripped
10 | (2/2) Accurately ripped
11 | (2/2) Accurately ripped


==== Log checksum 4E2ACBF452BE68D7C966E7F667D3595060D51F3418BDE676739AEAE6339213B8 ====