Subcategories

Nina Hagen - Street (1991) {Mercury}

Posted By: ruskaval
Nina Hagen - Street (1991) {Mercury}

Nina Hagen - Street (1991) {Mercury}
EAC rip (secure mode) | FLAC+CUE+LOG -> 344 Mb | MP3 @320 -> 115 Mb
Full Artwork @ 300 dpi (jpg) -> 12 Mb
© 1991 Phonogram / Mercury | 848 716-2
Rock / Post Punk / Alternative / Indie


Nina Hagen - Street (1991) {Mercury}

Nina Hagen is like an exorcism put to a dance beat…and twice as fun. "Street" is possibly one of her most subdued releases. Her vocal quirks are more limited on some tracks like "In My World" but not totally forgotten as in "Nina for President". Although the music sticks to a danceable formula, it's not dated to today's ears.

"Blumen fur die Damen" is simply beautiful. Gorgeous German lyrics over a percolating beat. Listening to her wail the title's words in the background during the middle-eight bars (before the final chorus) gives me chills. But wait, after a few more Danceteria tunes we get "Berlin (Is Dufte)". Nina shows us that she hasn't forgotten her punk roots. And to continue the trend that started on the previous "Nina Hagen" album, we get her version of a classic hit - this time, The Beach Boys' "Good Vibrations".
When a lot of established performers were struggling to stay "with-it" during the 80s, Nina released a satisfying record *and* had fun doing it.
tracklist:
01. Blumen Fur Die Damen (3:58)
02. Divine Love, Sex And Romance (4:25)
03. Ruler Of My Heart (3:56)
04. Love Hi (4:25)
05. Keep It Live (4:19)
06. Berlin (Is Dufte!) (3:55)
07. In My World (4:19)
08. Gretchen (5:22)
09. Erfurt & Gera (2:50)
10. All 4 Franckie (4:25)
11. Nina 4 President (4:06)
12. Good Vibes (4:11)

Nina Hagen - Street (1991) {Mercury}

Exact Audio Copy V0.99 prebeta 5 from 4. May 2009

EAC extraction logfile from 19. December 2009, 21:19

Nina Hagen / Street

Used drive : TSSTcorpCD/DVDW TS-H552L Adapter: 3 ID: 0

Read mode : Secure
Utilize accurate stream : Yes
Defeat audio cache : Yes
Make use of C2 pointers : No

Read offset correction : 6
Overread into Lead-In and Lead-Out : No
Fill up missing offset samples with silence : Yes
Delete leading and trailing silent blocks : No
Null samples used in CRC calculations : Yes
Used interface : Native Win32 interface for Win NT & 2000
Gap handling : Appended to previous track

Used output format : User Defined Encoder
Selected bitrate : 1024 kBit/s
Quality : High
Add ID3 tag : No
Command line compressor : C:\Program Files\FLAC\flac.exe
Additional command line options : -6 -V -T "ARTIST=%a" -T "TITLE=%t" -T "ALBUM=%g" -T "DATE=%y" -T "TRACKNUMBER=%n" -T "GENRE=%m" -T "COMMENT=EAC FLAC -6" %s


TOC of the extracted CD

Track | Start | Length | Start sector | End sector
––––––––––––––––––––––––––––-
1 | 0:00.00 | 4:00.15 | 0 | 18014
2 | 4:00.15 | 4:27.27 | 18015 | 38066
3 | 8:27.42 | 3:57.15 | 38067 | 55856
4 | 12:24.57 | 4:25.68 | 55857 | 75799
5 | 16:50.50 | 4:22.22 | 75800 | 95471
6 | 21:12.72 | 3:56.65 | 95472 | 113236
7 | 25:09.62 | 4:18.13 | 113237 | 132599
8 | 29:28.00 | 5:22.25 | 132600 | 156774
9 | 34:50.25 | 2:52.30 | 156775 | 169704
10 | 37:42.55 | 4:42.55 | 169705 | 190909
11 | 42:25.35 | 4:06.62 | 190910 | 209421
12 | 46:32.22 | 4:10.65 | 209422 | 228236


Track 1

Filename C:\Nina Hagen - Street (1991) {Mercury}\01 - Blumen Fur Die Damen.wav

Pre-gap length 0:00:02.00

Peak level 91.6 %
Track quality 100.0 %
Test CRC 70C2B443
Copy CRC 70C2B443
Accurately ripped (confidence 12) [BD5DA74D]
Copy OK

Track 2

Filename C:\Nina Hagen - Street (1991) {Mercury}\02 - Divine Love, Sex & Romance.wav

Pre-gap length 0:00:00.69

Peak level 100.0 %
Track quality 100.0 %
Test CRC 61FD0702
Copy CRC 61FD0702
Accurately ripped (confidence 12) [28D88638]
Copy OK

Track 3

Filename C:\Nina Hagen - Street (1991) {Mercury}\03 - Ruler Of My Heart.wav

Pre-gap length 0:00:01.01

Peak level 85.4 %
Track quality 100.0 %
Test CRC A0C68669
Copy CRC A0C68669
Accurately ripped (confidence 12) [635DADF5]
Copy OK

Track 4

Filename C:\Nina Hagen - Street (1991) {Mercury}\04 - Love Hi.wav

Pre-gap length 0:00:01.58

Peak level 84.8 %
Track quality 100.0 %
Test CRC 3065AB06
Copy CRC 3065AB06
Accurately ripped (confidence 12) [9FA22888]
Copy OK

Track 5

Filename C:\Nina Hagen - Street (1991) {Mercury}\05 - Keep It Live.wav

Pre-gap length 0:00:00.01

Peak level 98.5 %
Track quality 100.0 %
Test CRC 99214847
Copy CRC 99214847
Accurately ripped (confidence 12) [DEC2E23D]
Copy OK

Track 6

Filename C:\Nina Hagen - Street (1991) {Mercury}\06 - Berlin (Is Dufte!).wav

Pre-gap length 0:00:01.48

Peak level 91.3 %
Track quality 100.0 %
Test CRC 5D29D496
Copy CRC 5D29D496
Accurately ripped (confidence 12) [C1A3BFD5]
Copy OK

Track 7

Filename C:\Nina Hagen - Street (1991) {Mercury}\07 - In My World.wav

Pre-gap length 0:00:00.64

Peak level 83.0 %
Track quality 100.0 %
Test CRC 961A6160
Copy CRC 961A6160
Accurately ripped (confidence 12) [D7FB09AE]
Copy OK

Track 8

Filename C:\Nina Hagen - Street (1991) {Mercury}\08 - Gretchen.wav

Pre-gap length 0:00:00.01

Peak level 100.0 %
Track quality 100.0 %
Test CRC 9D7796DB
Copy CRC 9D7796DB
Accurately ripped (confidence 12) [54399484]
Copy OK

Track 9

Filename C:\Nina Hagen - Street (1991) {Mercury}\09 - Erfurt & Gera.wav

Peak level 85.6 %
Track quality 100.0 %
Test CRC FE0EE888
Copy CRC FE0EE888
Accurately ripped (confidence 12) [0C026590]
Copy OK

Track 10

Filename C:\Nina Hagen - Street (1991) {Mercury}\10 - All 4 Franckie.wav

Pre-gap length 0:00:00.01

Peak level 91.6 %
Track quality 100.0 %
Test CRC 5185517F
Copy CRC 5185517F
Accurately ripped (confidence 11) [60D8A17B]
Copy OK

Track 11

Filename C:\Nina Hagen - Street (1991) {Mercury}\11 - Nina 4 President.wav

Pre-gap length 0:00:01.11

Peak level 93.9 %
Track quality 100.0 %
Test CRC F7F39EFA
Copy CRC F7F39EFA
Accurately ripped (confidence 12) [D9A3CDAE]
Copy OK

Track 12

Filename C:\Nina Hagen - Street (1991) {Mercury}\12 - Good Vibrations.wav

Peak level 95.6 %
Track quality 100.0 %
Test CRC C5535D02
Copy CRC C5535D02
Accurately ripped (confidence 11) [D42D24B9]
Copy OK


All tracks accurately ripped

No errors occurred

End of status report

Please don't post the links and passes in your comments…

Linkz