Subcategories

Nor Elle - T A X I

Posted By: FLESH
Nor Elle - T A X I

Nor Elle - T A X I
Electronic, Future Jazz, Downtempo
FLAC+cue+log | 376.9 Mb | MP3, 192 Kbps | 88.5 Mb | Covers
Label: Mole Listening Pearls | Catalog#: MOLE087-2 | Country: Germany | Released: 12 Nov 2008

Tracklisting:
1 No Tobacco (6:03)
2 Soul Laundry (2:42)
3 To Be Jazzed (5:30)
4 Cut 'N' Run (5:47)
5 For A Drive (3:36)
6 Deep Breeze (3:28)
7 Swallow One's Pride (4:17)
8 Hotel Guatánamo (3:10)
9 Dub Flow CUT2 (5:36)
10 Face Up (4:24)
11 Ethnic Collapse (9:36)
12 I'm Stuck (3:24)
13 Love True Dimension (3:25)
14 The Truth (3:40)

Exact Audio Copy V0.99 prebeta 4 from 23. January 2008

Отчёт EAC об извлечении, выполненном 12. февраля 2009, 22:29

Nor Elle / T A X I

Дисковод: Optiarc DVD-ROM DDU1671S Adapter: 4 ID: 0

Режим чтения : Достоверность
Использование точного потока : Да
Отключение кэша аудио : Да
Использование указателей C2 : Нет

Коррекция смещения при чтении : 6
Способность читать области Lead-in и Lead-out : Нет
Заполнение пропущенных сэмплов тишиной : Да
Удаление блоков с тишиной в начале и конце : Нет
При вычислениях CRC использовались нулевые сэмплы : Да
Интерфейс : Встроенный Win32-интерфейс для Win NT/2000

Выходной формат : Внутренние WAV-операции
Формат сэмплов : 44.100 Гц; 16 бит; стерео


TOC извлечённого CD

Трек | Старт | Длительность | Начальный сектор | Конечный сектор
––––––––––––––––––––––––––––––––––-
1 | 0:00.00 | 6:03.59 | 0 | 27283
2 | 6:03.59 | 2:41.72 | 27284 | 39430
3 | 8:45.56 | 5:31.16 | 39431 | 64271
4 | 14:16.72 | 5:46.66 | 64272 | 90287
5 | 20:03.63 | 3:36.00 | 90288 | 106487
6 | 23:39.63 | 3:29.04 | 106488 | 122166
7 | 27:08.67 | 4:16.25 | 122167 | 141391
8 | 31:25.17 | 3:09.60 | 141392 | 155626
9 | 34:35.02 | 5:35.74 | 155627 | 180825
10 | 40:11.01 | 4:24.69 | 180826 | 200694
11 | 44:35.70 | 9:35.72 | 200695 | 243891
12 | 54:11.67 | 3:23.20 | 243892 | 259136
13 | 57:35.12 | 3:24.48 | 259137 | 274484
14 | 60:59.60 | 3:41.06 | 274485 | 291065


Характеристики диапазона извлечения и сообщения об ошибках

Выбранный диапазон

Имя файла K:\Nor Elle - T A X I (2008) (mole087-2)\Nor Elle - T A X I (2008) (mole087-2).wav

Пиковый уровень 99.0 %
Качество диапазона 100.0 %
CRC копии E039ED30
Копирование… OK

Ошибок не произошло

Конец отчёта