Subcategories
Tags
Language
Tags

Ocean Hills - Santa Monica (2020)

Posted By: El Misha
Ocean Hills - Santa Monica (2020)

Ocean Hills - Santa Monica (2020)
Rock | FLAC (tracks) | Cover | 1:00:04 | 443 MB + 5% Recovery
Label: AFM Records | Tracks: 14 | Rls.date: 2020

This is BIG Rock! Ocean Hills, the new band of former Ignite singer Zoli Téglás, is here - delivering up-to-date stadium Rock with and alternative touch to it. Definitely one of the bands to watch! He has been the voice of melodic hardcore band Ignite, but Zoli Téglás is a lot more than just that: Having also been fronting Pennywise and the Misfits temporarily, Téglás in addition has a nice resume of acting in Hollywood movies and is known as an activist for animal rights and environmental protection for many years. Now Zoli shows another interesting facet of his personality with the launch of his brand new band, OCEAN HILLS. "These songs come from the heart", the vocalist states who has just recently left Ignite after 25 years. "What you hear on our debut "Santa Monica" is exactly what I wanted to do with OCEAN HILLS. To focus entirely on my new band, I decided to stop my career with Ignite, because it just feels right at this point. There's so much positive energy here and I can't wait to see what the future holds for us". OCEAN HILLS is a daring new endeavour for Zoli Téglás - a brand new start, but with the experience of countless tours and recording sessions behind him. OCEAN HILLS' music feels like a vacation: it re-energizes, makes you reflect and feel good - but it's not superficial or insignificant. There's a subliminal, yearning element to the songs on "Santa Monica" and it's obvious that someone poured his heart and soul out to create this outstanding record.



Tracklist:

01. Bound (2:59)
02. A Separate Peace (3:52)
03. Death or Liberty (3:21)
04. Like a Lady (6:00)
05. Santa Monica (3:40)
06. Budapest My Love (5:13)
07. Hold Me (4:34)
08. Angels Wings (4:32)
09. Vampire (4:21)
10. Christina (4:23)
11. There Is a Light That Never Goes Out (4:24)
12. A Separate Peace (Extended Version) (4:13)
13. Death or Liberty (Extended Version) (3:33)
14. Santa Monica (Extended Version) (5:00)

CUE Corrector v. 8.4.1 / b. 1011 (Nov. 19, 2020)
————————————————————————————————————————————————————————————————————————
Ocean Hills / Santa Monica

Folder: Santa Monica - 2020 - Ocean Hills [FLAC]
Audio files:
01 Bound.flac [02:58.973; FLAC • 1056 kbps • 16 bit \ 44100 Hz • stereo; 22,54 MB (23 637 166 B)]
02 A Separate Peace.flac [03:52.387; FLAC • 1048 kbps • 16 bit \ 44100 Hz • stereo; 29,04 MB (30 453 919 B)]
03 Death or Liberty.flac [03:20.653; FLAC • 1046 kbps • 16 bit \ 44100 Hz • stereo; 25,04 MB (26 252 791 B)]
04 Like a Lady.flac [05:59.733; FLAC • 1047 kbps • 16 bit \ 44100 Hz • stereo; 44,92 MB (47 102 094 B)]
05 Santa Monica.flac [03:40.453; FLAC • 1051 kbps • 16 bit \ 44100 Hz • stereo; 27,63 MB (28 970 632 B)]
06 Budapest My Love.flac [05:12.533; FLAC • 999 kbps • 16 bit \ 44100 Hz • stereo; 37,23 MB (39 034 417 B)]
07 Hold Me.flac [04:34.493; FLAC • 858 kbps • 16 bit \ 44100 Hz • stereo; 28,08 MB (29 449 252 B)]
08 Angels Wings.flac [04:31.533; FLAC • 1054 kbps • 16 bit \ 44100 Hz • stereo; 34,15 MB (35 804 852 B)]
09 Vampire.flac [04:21.493; FLAC • 974 kbps • 16 bit \ 44100 Hz • stereo; 30,38 MB (31 854 624 B)]
10 Christina.flac [04:23.000; FLAC • 923 kbps • 16 bit \ 44100 Hz • stereo; 28,96 MB (30 364 931 B)]
11 There Is a Light That Never Goes Out.flac [04:23.720; FLAC • 978 kbps • 16 bit \ 44100 Hz • stereo; 30,76 MB (32 250 413 B)]
12 A Separate Peace (Extended Version).flac [04:13.227; FLAC • 1035 kbps • 16 bit \ 44100 Hz • stereo; 31,25 MB (32 772 823 B)]
13 Death or Liberty (Extended Version).flac [03:32.613; FLAC • 1038 kbps • 16 bit \ 44100 Hz • stereo; 26,33 MB (27 613 066 B)]
14 Santa Monica (Extended Version).flac [04:59.867; FLAC • 1033 kbps • 16 bit \ 44100 Hz • stereo; 36,95 MB (38 746 467 B)]

Accuracy: -m3

File 01 Bound - 100% CDDA [02:58:73]
File 02 A Separate Peace - 100% CDDA [03:52:29]
File 03 Death or Liberty - 100% CDDA [03:20:49]
File 04 Like a Lady - 100% CDDA [05:59:55]
File 05 Santa Monica - 100% CDDA [03:40:33]
File 06 Budapest My Love - 100% CDDA [05:12:39]
File 07 Hold Me - 100% CDDA [04:34:37]
File 08 Angels Wings - 100% CDDA [04:31:39]
File 09 Vampire - 100% CDDA [04:21:36]
File 10 Christina - 100% CDDA [04:23:00]
File 11 There Is a Light That Never Goes Out - 100% CDDA [04:23:54]
File 12 A Separate Peace (Extended Version) - 100% CDDA [04:13:17]
File 13 Death or Liberty (Extended Version) - 100% CDDA [03:32:46]
File 14 Santa Monica (Extended Version) - 100% CDDA [04:59:65]
————— Summary: —————
These tracks looks like CDDA with probability 100%.
————————————————————————————————————————————————————————————————————————

ANALYZER:
auCDtect: CD records authenticity detector, version 0.8.2
Copyright © 2004 Oleg Berngardt. All rights reserved.
Copyright © 2004 Alexander Djourik. All rights reserved.

Time elapsed: 45.8 s
Log created at November 26, 2020 16:38:58

=== DA2AD810BD5B105D26AFA1DF53C42D831724777B15C9F8DD3178DAE17D78E713 ===


foobar2000 1.6.1 / Замер динамического диапазона (DR) 1.1.1
Дата отчёта: 2020-11-26 16:36:33

––––––––––––––––––––––––––––––––––––––––
Анализ: Ocean Hills / Santa Monica
––––––––––––––––––––––––––––––––––––––––

DR Пики RMS Продолжительность трека
––––––––––––––––––––––––––––––––––––––––
DR6 0.00 дБ -7.32 дБ 2:59 01-Bound
DR7 0.00 дБ -8.15 дБ 3:52 02-A Separate Peace
DR8 0.00 дБ -9.05 дБ 3:21 03-Death or Liberty
DR8 0.00 дБ -8.86 дБ 6:00 04-Like a Lady
DR7 0.00 дБ -8.19 дБ 3:40 05-Santa Monica
DR7 0.00 дБ -9.55 дБ 5:13 06-Budapest My Love
DR8 0.00 дБ -10.43 дБ 4:34 07-Hold Me
DR7 0.00 дБ -8.13 дБ 4:32 08-Angels Wings
DR8 0.00 дБ -9.32 дБ 4:21 09-Vampire
DR8 0.00 дБ -9.32 дБ 4:23 10-Christina
DR8 0.00 дБ -10.04 дБ 4:24 11-There Is a Light That Never Goes Out
DR7 0.00 дБ -8.20 дБ 4:13 12-A Separate Peace (Extended Version)
DR8 0.00 дБ -9.03 дБ 3:33 13-Death or Liberty (Extended Version)
DR8 0.00 дБ -8.32 дБ 5:00 14-Santa Monica (Extended Version)
––––––––––––––––––––––––––––––––––––––––

Количество треков: 14
Реальные значения DR: DR8

Частота: 44100 Гц
Каналов: 2
Разрядность: 16
Битрейт: 1018 кбит/с
Кодек: FLAC
================================================================================


All thanks to original releaser!