Tags
Language
Tags
December 2022
Su Mo Tu We Th Fr Sa
27 28 29 30 1 2 3
4 5 6 7 8 9 10
11 12 13 14 15 16 17
18 19 20 21 22 23 24
25 26 27 28 29 30 31

Olivier Messiaen - Intégrale de l'œuvre d'orgue - Grand Orgue de l'Église de la Trinité - Paris (1995) (7CD Box Set)

Posted By: shamanicus
Olivier Messiaen - Intégrale de l'œuvre d'orgue - Grand Orgue de l'Église de la Trinité - Paris (1995) (7CD Box Set)

Olivier Messiaen - Intégrale de l'œuvre d'orgue - Grand Orgue de l'Église de la Trinité - Paris (1995) (7CD Box Set)
XLD Rip | FLAC (tracks+.cue, log) | 1.22 Gb | Artwork (600dpi, jpg) | 565Mb | MP3 CBR 320kbps | 1000 mb
Classical, Contemporary, Organ | Label: Jade / 74321 29491-2

La seule réalité se situe dans le domaine de la Foi. C’est par la rencontre avec un Autre que nous pouvons le comprendre. Mais il faut passer par la mort et la Résurrection, ce qui suppose le saut hors du temps. Assez étrangement, la musique peut nous y préparer, comme image, comme reflet, comme symbole. En effet, la musique est un perpétuel dialogue entre l’espace et le temps, entre le son et la couleur, dialogue qui aboutit à une unification. Le musicien qui pense, voit, entend, parle au moyen de ces notions fondamentales, peut, dans une certaine mesure, s’approcher de l’Au-delà.

Ainsi s’exprimait Olivier Messiaen, qui, disparu le 27 avril 1992, a aujourd'hui « sûrement retrouvé au Ciel ses grands camarades organistes morts avant lui et auprès de qui il ne reste certainement pas inactif », selon la formule de son épouse, la pianiste Yvonne Loriod. Chantre du catholicisme, pas musicien mystique mais exégète en musique des mystères chrétiens, artiste de la joie et de la lumière, maître de la modernité, pédagogue sans pareil, il aimait naturellement partager sa passion de la musique, dispensant son savoir avec discernement et discrétion, comme l’attestent ses nombreux élèves, notamment le plus grand d’entre eux, Pierre Boulez, qui se souvient que son aîné fut le seul de ses professeurs à détenir les qualités cardinales d’un pédagogue, « avoir de l’imagination pour ses élèves, faire passer le souffle de l’histoire, le souffle des compositeurs ».

« Né croyant », Olivier Messiaen se reconnaissait trois grands thèmes d’inspiration, sa foi catholique, l’amour humain, la nature. A deux siècles de distance, la musique de Messiaen-le-catholique partage avec celle de Bach-le-protestant une spiritualité irrépressible, une même capacité au réconfort, le pouvoir d’illuminer ceux qui l’écoutent. Si la Bible, particulièrement le Nouveau Testament, les Epîtres de saint Paul, les Psaumes, les Prophètes, la Genèse, l’Exode, le Missel, la Somme théologique de Thomas d’Aquin, Jan van Ruusbroec, Jean de la Croix, Thérèse de Lisieux, les Fioretti de François d’Assise, Ernst Hello, Romano Guardini, Dom Columbia Marmion, Thomas Merton ou Hans Urs von Balthasar animent l’essentiel de sa création, il ne jugeait pas nécessaire de composer une musique pour le culte, car il estimait ne pas être un compositeur liturgique, ne reconnaissant que le plain-chant pour seule musique liturgique. Pourtant, s’il confia l’expression de sa foi autant au piano qu’à l’orchestre, c’est aux soixante-et-un jeux du Cavaillé-Coll de l’église de La Trinité qu’il se donna tout entier, leur apportant un sang nouveau, des couleurs, des registrations, des harmonies inédites. « L’orgue était l’instrument d’Olivier Messiaen par excellence, rappelait Yvonne Loriod. Il l’appelait d’ailleurs l’instrument-roi. C’est sur lui seul qu’il pouvait s’exprimer sans intermédiaire. Pendant plus de soixante ans, jusque deux mois avant sa mort, il accompagna les offices dominicaux de la paroisse, car c’était son emploi principal, à La Trinité. Il jouait les classiques à la messe de dix heures, à celle de onze heures, c’étaient les romantiques, à midi la musique contemporaine. Ainsi, chaque paroissien choisissait son service en fonction de ce qu’il voulait entendre. Mais, fort scrupuleux, il respectait les textes du jour, restait intransigeant. »

« J'attendais avec impatience la fin de l’office, se souvient le dramaturge René de Obaldia (1). C'est que, sitôt après le Ite missa est, Olivier Messiaen se prenait à improviser, à jouer du Messiaen ! »
Bruno Serrou


Tracklist:

CD 1

Olivier Messiaen - Intégrale de l'œuvre d'orgue - Grand Orgue de l'Église de la Trinité - Paris (1995) (7CD Box Set)


01 Le Banquet Céleste [1928]

La Nativité du Seigneur [1935]
02 I. La Vierge et l'Enfant
03 II. Les Bergers
04 III. Desseins Éternels
05 IV. Le Verbe
06 V. Les Enfants de Dieu
07 VI. Les Anges
08 VII. Jésus accepte la souffrance
09 VIII. Les Mages
10 IX. Dieu parmi nous


CD 2

Olivier Messiaen - Intégrale de l'œuvre d'orgue - Grand Orgue de l'Église de la Trinité - Paris (1995) (7CD Box Set)


Diptyque [1930]
01 La Vie Terrestre - Le Paradis

Les Corps Glorieux [1939]
02 I. Subtilité des corps glorieux
03 II. Les eaux de la grâce
04 III. L'Ange aux parfums
05 IV. Combat de la mort et de la vie
06 V. Force et agilité des corps glorieux
07 VI. Joie et clarté des corps glorieux
08 VII. Le mystère de la Sainte Trinité


CD 3

Olivier Messiaen - Intégrale de l'œuvre d'orgue - Grand Orgue de l'Église de la Trinité - Paris (1995) (7CD Box Set)


L'Ascension [1934]
01 I. Majesté du Christ demandant sa gloire à son Père
02 II. Alléluias sereins d'une âme qui désire le ciel
03 III. Transports de joie d'une âme devant la gloire du Christ qui est la sienne
04 IV. Prière du Christ montant vers son Père

Messe de la Pentecôte [1950]
05 I. Les langues de feu
06 II. Les choses visibles et invisibles
07 III. Le don de la Sagesse
08 IV. Les oiseaux et les sources
09 V. Le vent de l'Esprit


CD 4

Olivier Messiaen - Intégrale de l'œuvre d'orgue - Grand Orgue de l'Église de la Trinité - Paris (1995) (7CD Box Set)


01 Apparition de l'Église Éternelle [1932]

Livre d'Orgue [1951]
02 I. Reprises par interversion
03 II. Pièce en trio
04 III. Les Mains de l'abîme
05 IV. Chants d'oiseaux
06 V. Pièce en trio
07 VI. Les Yeux dans les roues
08 VII. Soixante-quatre durées

09 Verset pour la Fête de la Dédicace [1960]


CD 5

Olivier Messiaen - Intégrale de l'œuvre d'orgue - Grand Orgue de l'Église de la Trinité - Paris (1995) (7CD Box Set)


Méditations sur le Mystère de la Sainte Trinité [1969]
01 I. Le Père Inengendré
02 II. La Sainteté de Jésus Christ
03 III. La relation réelle en Dieu est réellement identique à l'essence
04 IV. Je suis, Je suis!
05 V. Dieu est Immense, Éternel, Immuable - Le Souffle de l'Esprit - Dieu est Amour
06 VI. Le Fils, Verbe et Lumière
07 VII. Le Père et le Fils aiment par le Saint-Esprit eux-mêmes et nous
08 VIII. Dieu est simple
09 IX. Je suis Celui qui suis


CD 6

Olivier Messiaen - Intégrale de l'œuvre d'orgue - Grand Orgue de l'Église de la Trinité - Paris (1995) (7CD Box Set)


Livre du Saint Sacrement [1984]
01 I. Adoro te
02 II. La Source de Vie
03 III. Le Dieu caché
04 IV. Acte de Foi
05 V. Puer natus est nobis
06 VI. La manne et la Pain de Vie
07 VII. Les ressuscités et la lumière de Vie
08 VIII. Institution de I'Eucharistie
09 IX. Les ténèbres
10 X. La Résurrection du Christ
11 XI. L'apparition du Christ ressuscité à Marie-Madeleine


CD 7

Olivier Messiaen - Intégrale de l'œuvre d'orgue - Grand Orgue de l'Église de la Trinité - Paris (1995) (7CD Box Set)


Livre du Saint Sacrement [1984]
01 XII. Le Transsubstantiation
02 XIII. Les deux murailles d'eau
03 XIV. Prière avant la communion
04 XV. Le joie de le grâce
05 XVI. Prière après le communion
06 XVII. La Présence multipliée
07 XVIII. Offrande et Alléluia final


Organ (Aristide Cavaillé-Coll 1871, Pleyel-Cavaillé-Coll firm 1934, Beuchet-Debierre 1962-65, l'Église de la Sainte-Trinité, Paris):

Jennifer Bate (CD 01), recording: 5 & 6 March 1995
Jon Gillock (CD 02), recording: 16 & 17 March 1995
Naji Hakim (CD 03), recording: 18 & 21 March 1995
Louis Thiry (CD 04), recording: 24 & 26 March 1995
Thomas Daniel Schlee (CD 05), recording: 2 & 4 April 1995
Hans-Ola Ericsson (CD 06 & 07), recording: 9, 10 & 11 April 1995

Olivier Messiaen - Intégrale de l'œuvre d'orgue - Grand Orgue de l'Église de la Trinité - Paris (1995) (7CD Box Set)



X Lossless Decoder version 20151214 (149.1)

XLD extraction logfile from 2016-02-07 12:24:45 +0100

Various Artists / Olivier Messiaen - Intégrale de l'œuvre d'orgue - Grand Orgue de l'Église de la Trinité - Paris [Jade]

Used drive : TSSTcorp CDDVDW SE-S084D (revision TS01)
Media type : Pressed CD

Ripper mode : XLD Secure Ripper
Disable audio cache : OK for the drive with a cache less than 1375KiB
Make use of C2 pointers : NO
Read offset correction : 6
Max retry count : 100
Gap status : Analyzed, Appended (except HTOA)

TOC of the extracted CD
Track | Start | Length | Start sector | End sector
––––––––––––––––––––––––––––-
1 | 00:00:00 | 07:14:40 | 0 | 32589
2 | 07:14:40 | 06:38:67 | 32590 | 62506
3 | 13:53:32 | 08:03:18 | 62507 | 98749
4 | 21:56:50 | 05:04:50 | 98750 | 121599
5 | 27:01:25 | 12:55:37 | 121600 | 179761
6 | 39:56:62 | 04:50:58 | 179762 | 201569
7 | 44:47:45 | 03:40:00 | 201570 | 218069
8 | 48:27:45 | 04:51:70 | 218070 | 239964
9 | 53:19:40 | 06:22:57 | 239965 | 268671
10 | 59:42:22 | 10:03:08 | 268672 | 313904

AccurateRip Summary (DiscID: 001a82af-00d26800-9510590a)
Track 01 : OK (v2, confidence 2/2)
Track 02 : OK (v2, confidence 2/2)
Track 03 : OK (v2, confidence 2/2)
Track 04 : OK (v2, confidence 2/2)
Track 05 : OK (v2, confidence 2/2)
Track 06 : OK (v2, confidence 2/2)
Track 07 : OK (v2, confidence 2/2)
Track 08 : OK (v2, confidence 2/2)
Track 09 : OK (v2, confidence 2/2)
Track 10 : OK (v2, confidence 2/2)
->All tracks accurately ripped.

All Tracks
Album gain : 3.88 dB
Peak : 0.971680
Statistics
Read error : 0
Jitter error (maybe fixed) : 0
Retry sector count : 0
Damaged sector count : 0

Track 01
Filename : /Olivier Messiaen - Intégrale de l'œuvre d'orgue - Grand Orgue de l'Église de la Trinité - Paris [Jade]/CD 1/01 Le Banquet Céleste [1928].flac
Pre-gap length : 00:02:00

Track gain : 19.56 dB
Peak : 0.111206
CRC32 hash (test run) : 9CB6A23D
CRC32 hash : 9CB6A23D
CRC32 hash (skip zero) : 8F537A51
AccurateRip v1 signature : 99EE3423
AccurateRip v2 signature : 6B964C9B
->Accurately ripped (v2, confidence 2/2)
Statistics
Read error : 0
Jitter error (maybe fixed) : 0
Retry sector count : 0
Damaged sector count : 0

Track 02
Filename : /Olivier Messiaen - Intégrale de l'œuvre d'orgue - Grand Orgue de l'Église de la Trinité - Paris [Jade]/CD 1/02 La Nativité du Seigneur [1935]: I. La Vierge et l'Enfant.flac

Track gain : 18.07 dB
Peak : 0.074097
CRC32 hash (test run) : B0BF3A90
CRC32 hash : B0BF3A90
CRC32 hash (skip zero) : E502C5D8
AccurateRip v1 signature : 4CB2EF2E
AccurateRip v2 signature : 5A70E851
->Accurately ripped (v2, confidence 2/2)
Statistics
Read error : 0
Jitter error (maybe fixed) : 0
Retry sector count : 0
Damaged sector count : 0

Track 03
Filename : /Olivier Messiaen - Intégrale de l'œuvre d'orgue - Grand Orgue de l'Église de la Trinité - Paris [Jade]/CD 1/03 La Nativité du Seigneur [1935]: II. Les Bergers.flac

Track gain : 14.92 dB
Peak : 0.106110
CRC32 hash (test run) : 91CCB74E
CRC32 hash : 91CCB74E
CRC32 hash (skip zero) : 0634EBAC
AccurateRip v1 signature : 7CCD7297
AccurateRip v2 signature : 74CAF6AA
->Accurately ripped (v2, confidence 2/2)
Statistics
Read error : 0
Jitter error (maybe fixed) : 0
Retry sector count : 0
Damaged sector count : 0

Track 04
Filename : /Olivier Messiaen - Intégrale de l'œuvre d'orgue - Grand Orgue de l'Église de la Trinité - Paris [Jade]/CD 1/04 La Nativité du Seigneur [1935]: III. Desseins Éternels.flac

Track gain : 19.13 dB
Peak : 0.124542
CRC32 hash (test run) : 3A424D10
CRC32 hash : 3A424D10
CRC32 hash (skip zero) : CA16CFBF
AccurateRip v1 signature : B7C38CD0
AccurateRip v2 signature : 4033A4FE
->Accurately ripped (v2, confidence 2/2)
Statistics
Read error : 0
Jitter error (maybe fixed) : 0
Retry sector count : 0
Damaged sector count : 0

Track 05
Filename : /Olivier Messiaen - Intégrale de l'œuvre d'orgue - Grand Orgue de l'Église de la Trinité - Paris [Jade]/CD 1/05 La Nativité du Seigneur [1935]: IV. Le Verbe.flac

Track gain : 7.42 dB
Peak : 0.492767
CRC32 hash (test run) : C886FBEA
CRC32 hash : C886FBEA
CRC32 hash (skip zero) : 42303984
AccurateRip v1 signature : 3957B32B
AccurateRip v2 signature : 4BCDE0D0
->Accurately ripped (v2, confidence 2/2)
Statistics
Read error : 0
Jitter error (maybe fixed) : 0
Retry sector count : 0
Damaged sector count : 0

Track 06
Filename : /Olivier Messiaen - Intégrale de l'œuvre d'orgue - Grand Orgue de l'Église de la Trinité - Paris [Jade]/CD 1/06 La Nativité du Seigneur [1935]: V. Les Enfants de Dieu.flac

Track gain : 1.97 dB
Peak : 0.664795
CRC32 hash (test run) : 53297078
CRC32 hash : 53297078
CRC32 hash (skip zero) : E0F1F257
AccurateRip v1 signature : 827917C7
AccurateRip v2 signature : CFFDE89A
->Accurately ripped (v2, confidence 2/2)
Statistics
Read error : 0
Jitter error (maybe fixed) : 0
Retry sector count : 0
Damaged sector count : 0

Track 07
Filename : /Olivier Messiaen - Intégrale de l'œuvre d'orgue - Grand Orgue de l'Église de la Trinité - Paris [Jade]/CD 1/07 La Nativité du Seigneur [1935]: VI. Les Anges.flac

Track gain : 12.62 dB
Peak : 0.134521
CRC32 hash (test run) : 810781C1
CRC32 hash : 810781C1
CRC32 hash (skip zero) : 0D09A814
AccurateRip v1 signature : 91650C74
AccurateRip v2 signature : BF834F79
->Accurately ripped (v2, confidence 2/2)
Statistics
Read error : 0
Jitter error (maybe fixed) : 0
Retry sector count : 0
Damaged sector count : 0

Track 08
Filename : /Olivier Messiaen - Intégrale de l'œuvre d'orgue - Grand Orgue de l'Église de la Trinité - Paris [Jade]/CD 1/08 La Nativité du Seigneur [1935]: VII. Jésus accepte la souffrance.flac

Track gain : -1.94 dB
Peak : 0.953583
CRC32 hash (test run) : 09438232
CRC32 hash : 09438232
CRC32 hash (skip zero) : 900C5D16
AccurateRip v1 signature : FF6DAADB
AccurateRip v2 signature : B58F17E7
->Accurately ripped (v2, confidence 2/2)
Statistics
Read error : 0
Jitter error (maybe fixed) : 0
Retry sector count : 0
Damaged sector count : 0

Track 09
Filename : /Olivier Messiaen - Intégrale de l'œuvre d'orgue - Grand Orgue de l'Église de la Trinité - Paris [Jade]/CD 1/09 La Nativité du Seigneur [1935]: VIII. Les Mages.flac

Track gain : 18.60 dB
Peak : 0.066162
CRC32 hash (test run) : AB68D1BC
CRC32 hash : AB68D1BC
CRC32 hash (skip zero) : D1F22113
AccurateRip v1 signature : F8864466
AccurateRip v2 signature : A5B40ECB
->Accurately ripped (v2, confidence 2/2)
Statistics
Read error : 0
Jitter error (maybe fixed) : 0
Retry sector count : 0
Damaged sector count : 0

Track 10
Filename : /Olivier Messiaen - Intégrale de l'œuvre d'orgue - Grand Orgue de l'Église de la Trinité - Paris [Jade]/CD 1/10 La Nativité du Seigneur [1935]: IX. Dieu parmi nous.flac

Track gain : -2.06 dB
Peak : 0.971680
CRC32 hash (test run) : 0859DC1A
CRC32 hash : 0859DC1A
CRC32 hash (skip zero) : 483A9EBD
AccurateRip v1 signature : 7CE692CC
AccurateRip v2 signature : E2FE5B8C
->Accurately ripped (v2, confidence 2/2)
Statistics
Read error : 0
Jitter error (maybe fixed) : 0
Retry sector count : 0
Damaged sector count : 0

No errors occurred

End of status report

––-BEGIN XLD SIGNATURE––-
RYoXmytuCfHRtbhxttxNqQHeIJEvztUt8QOqm8td3yrMniD6Zki3DF5bb3XvtUu5tz40KR9OYl8v450vhMUvGnAsh32my.bwqCa7B04
––-END XLD SIGNATURE––-

X Lossless Decoder version 20151214 (149.1)

XLD extraction logfile from 2016-02-17 19:19:08 +0100

Various Artists / Olivier Messiaen - Intégrale de l'œuvre d'orgue - Grand Orgue de l'Église de la Trinité - Paris [Jade]

Used drive : TSSTcorp CDDVDW SE-S084D (revision TS01)
Media type : Pressed CD

Ripper mode : XLD Secure Ripper
Disable audio cache : OK for the drive with a cache less than 1375KiB
Make use of C2 pointers : NO
Read offset correction : 6
Max retry count : 100
Gap status : Analyzed, Appended (except HTOA)

TOC of the extracted CD
Track | Start | Length | Start sector | End sector
––––––––––––––––––––––––––––-
1 | 00:00:00 | 15:05:57 | 0 | 67931
2 | 15:05:57 | 05:37:05 | 67932 | 93211
3 | 20:42:62 | 03:00:00 | 93212 | 106711
4 | 23:42:62 | 08:26:55 | 106712 | 144716
5 | 32:09:42 | 21:37:63 | 144717 | 242054
6 | 53:47:30 | 03:58:12 | 242055 | 259916
7 | 57:45:42 | 06:57:03 | 259917 | 291194
8 | 64:42:45 | 09:34:02 | 291195 | 334246

List of alternate offset correction values
# | Absolute | Relative | Confidence
–––––––––––––––––––––
1 | 563 | 557 | 2

AccurateRip Summary (DiscID: 00177f93-009b43ea-71116808)
Track 01 : OK (v1+v2, confidence 2/5)
Track 02 : OK (v1+v2, confidence 2/4)
Track 03 : OK (v1+v2, confidence 2/4)
Track 04 : OK (v1+v2, confidence 2/4)
Track 05 : OK (v1+v2, confidence 2/4)
Track 06 : OK (v1+v2, confidence 2/4)
Track 07 : OK (v1+v2, confidence 2/4)
Track 08 : OK (v1+v2, confidence 2/4)
->All tracks accurately ripped.

All Tracks
Album gain : 8.54 dB
Peak : 0.999542
Statistics
Read error : 0
Jitter error (maybe fixed) : 0
Retry sector count : 0
Damaged sector count : 0

Track 01
Filename : /Olivier Messiaen - Intégrale de l'œuvre d'orgue - Grand Orgue de l'Église de la Trinité - Paris [Jade]/CD 2/01 Diptyque [1930]: La Vie Terrestre - Le Paradis.flac
Pre-gap length : 00:02:00

Track gain : 6.68 dB
Peak : 0.538391
CRC32 hash (test run) : E5BFC55D
CRC32 hash : E5BFC55D
CRC32 hash (skip zero) : 176B301E
AccurateRip v1 signature : 1620F593
AccurateRip v2 signature : 350028BE
->Accurately ripped (v1+v2, confidence 1+1/5)
Statistics
Read error : 0
Jitter error (maybe fixed) : 0
Retry sector count : 0
Damaged sector count : 0

Track 02
Filename : /Olivier Messiaen - Intégrale de l'œuvre d'orgue - Grand Orgue de l'Église de la Trinité - Paris [Jade]/CD 2/02 Les Corps Glorieux [1939]: I. Subtilité des corps glorieux.flac

Track gain : 15.41 dB
Peak : 0.120819
CRC32 hash (test run) : C3E8C1CB
CRC32 hash : C3E8C1CB
CRC32 hash (skip zero) : 43B7416A
AccurateRip v1 signature : 98504CAE
AccurateRip v2 signature : 264790BB
->Accurately ripped (v1+v2, confidence 1+1/4)
Statistics
Read error : 0
Jitter error (maybe fixed) : 0
Retry sector count : 0
Damaged sector count : 0

Track 03
Filename : /Olivier Messiaen - Intégrale de l'œuvre d'orgue - Grand Orgue de l'Église de la Trinité - Paris [Jade]/CD 2/03 Les Corps Glorieux [1939]: II. Les eaux de la grâce.flac

Track gain : 18.91 dB
Peak : 0.066101
CRC32 hash (test run) : B15E833D
CRC32 hash : B15E833D
CRC32 hash (skip zero) : 48561FEA
AccurateRip v1 signature : 00D6D92F
AccurateRip v2 signature : 5C37B32D
->Accurately ripped (v1+v2, confidence 1+1/4)
Statistics
Read error : 0
Jitter error (maybe fixed) : 0
Retry sector count : 0
Damaged sector count : 0

Track 04
Filename : /Olivier Messiaen - Intégrale de l'œuvre d'orgue - Grand Orgue de l'Église de la Trinité - Paris [Jade]/CD 2/04 Les Corps Glorieux [1939]: III. L'Ange aux parfums.flac

Track gain : 13.61 dB
Peak : 0.123413
CRC32 hash (test run) : 9C80693F
CRC32 hash : 9C80693F
CRC32 hash (skip zero) : 8AEAB460
AccurateRip v1 signature : 79C188C0
AccurateRip v2 signature : 8171AD1B
->Accurately ripped (v1+v2, confidence 1+1/4)
Statistics
Read error : 0
Jitter error (maybe fixed) : 0
Retry sector count : 0
Damaged sector count : 0

Track 05
Filename : /Olivier Messiaen - Intégrale de l'œuvre d'orgue - Grand Orgue de l'Église de la Trinité - Paris [Jade]/CD 2/05 Les Corps Glorieux [1939]: IV. Combat de la mort et de la vie.flac

Track gain : 1.19 dB
Peak : 0.999542
CRC32 hash (test run) : B81782DF
CRC32 hash : B81782DF
CRC32 hash (skip zero) : 506774AE
AccurateRip v1 signature : 21A17256
AccurateRip v2 signature : E9DB21D3
->Accurately ripped (v1+v2, confidence 1+1/4)
Statistics
Read error : 0
Jitter error (maybe fixed) : 0
Retry sector count : 0
Damaged sector count : 0

Track 06
Filename : /Olivier Messiaen - Intégrale de l'œuvre d'orgue - Grand Orgue de l'Église de la Trinité - Paris [Jade]/CD 2/06 Les Corps Glorieux [1939]: V. Force et agilité des corps glorieux.flac

Track gain : 10.37 dB
Peak : 0.206238
CRC32 hash (test run) : 5408DF52
CRC32 hash : 5408DF52
CRC32 hash (skip zero) : 09094E50
AccurateRip v1 signature : 87EA9A8A
AccurateRip v2 signature : EB9599F6
->Accurately ripped (v1+v2, confidence 1+1/4)
Statistics
Read error : 0
Jitter error (maybe fixed) : 0
Retry sector count : 0
Damaged sector count : 0

Track 07
Filename : /Olivier Messiaen - Intégrale de l'œuvre d'orgue - Grand Orgue de l'Église de la Trinité - Paris [Jade]/CD 2/07 Les Corps Glorieux [1939]: VI. Joie et clarté des corps glorieux.flac

Track gain : 10.62 dB
Peak : 0.308868
CRC32 hash (test run) : 58023780
CRC32 hash : 58023780
CRC32 hash (skip zero) : A0BD07D7
AccurateRip v1 signature : 40ED9FD4
AccurateRip v2 signature : D1666A83
->Accurately ripped (v1+v2, confidence 1+1/4)
Statistics
Read error : 0
Jitter error (maybe fixed) : 0
Retry sector count : 0
Damaged sector count : 0

Track 08
Filename : /Olivier Messiaen - Intégrale de l'œuvre d'orgue - Grand Orgue de l'Église de la Trinité - Paris [Jade]/CD 2/08 Les Corps Glorieux [1939]: VII. Le mystère de la Sainte Trinité.flac

Track gain : 16.20 dB
Peak : 0.155518
CRC32 hash (test run) : 95FEEC51
CRC32 hash : 95FEEC51
CRC32 hash (skip zero) : EECDDCE8
AccurateRip v1 signature : 031ABD3A
AccurateRip v2 signature : 4BF9A74D
->Accurately ripped (v1+v2, confidence 1+1/4)
Statistics
Read error : 0
Jitter error (maybe fixed) : 0
Retry sector count : 0
Damaged sector count : 0

No errors occurred

End of status report

––-BEGIN XLD SIGNATURE––-
O4eIFsh6uASd6h2g2jwW4MCX0C_ZkjOG4t.otOyEsVUXaNUW9E0rEHK9zFcg5EwXWsfCR3RyTuXmI1QZvyqETli7sJM0.uObbqYT_vu
––-END XLD SIGNATURE––-

X Lossless Decoder version 20151214 (149.1)

XLD extraction logfile from 2016-02-07 13:24:26 +0100

Various Artists / Olivier Messiaen - Intégrale de l'œuvre d'orgue - Grand Orgue de l'Église de la Trinité - Paris [Jade]

Used drive : TSSTcorp CDDVDW SE-S084D (revision TS01)
Media type : Pressed CD

Ripper mode : XLD Secure Ripper
Disable audio cache : OK for the drive with a cache less than 1375KiB
Make use of C2 pointers : NO
Read offset correction : 6
Max retry count : 100
Gap status : Analyzed, Appended (except HTOA)

TOC of the extracted CD
Track | Start | Length | Start sector | End sector
––––––––––––––––––––––––––––-
1 | 00:00:00 | 05:15:65 | 0 | 23689
2 | 05:15:65 | 05:46:55 | 23690 | 49694
3 | 11:02:45 | 04:25:35 | 49695 | 69604
4 | 15:28:05 | 06:54:17 | 69605 | 100671
5 | 22:22:22 | 02:54:03 | 100672 | 113724
6 | 25:16:25 | 10:43:05 | 113725 | 161954
7 | 35:59:30 | 03:24:70 | 161955 | 177324
8 | 39:24:25 | 05:56:45 | 177325 | 204069
9 | 45:20:70 | 03:28:52 | 204070 | 219721

AccurateRip Summary (DiscID: 001118cb-007dd5cb-6c0b7109)
Track 01 : OK (v1+v2, confidence 4/4)
Track 02 : OK (v1+v2, confidence 4/4)
Track 03 : OK (v1+v2, confidence 4/4)
Track 04 : OK (v1+v2, confidence 4/4)
Track 05 : OK (v1+v2, confidence 4/4)
Track 06 : OK (v1+v2, confidence 4/4)
Track 07 : OK (v1+v2, confidence 4/4)
Track 08 : OK (v1+v2, confidence 4/4)
Track 09 : OK (v1+v2, confidence 4/4)
->All tracks accurately ripped.

All Tracks
Album gain : 3.23 dB
Peak : 1.000000
Statistics
Read error : 0
Jitter error (maybe fixed) : 0
Retry sector count : 0
Damaged sector count : 0

Track 01
Filename : /Olivier Messiaen - Intégrale de l'œuvre d'orgue - Grand Orgue de l'Église de la Trinité - Paris [Jade]/CD 3/01 L'Ascension [1934]: I. Majesté du Christ demandant sa gloire à son Père.flac
Pre-gap length : 00:02:00

Track gain : 4.38 dB
Peak : 0.610046
CRC32 hash (test run) : E1141FDC
CRC32 hash : E1141FDC
CRC32 hash (skip zero) : 76576962
AccurateRip v1 signature : 9C992D4E
AccurateRip v2 signature : 2713158A
->Accurately ripped (v1+v2, confidence 2+2/4)
Statistics
Read error : 0
Jitter error (maybe fixed) : 0
Retry sector count : 0
Damaged sector count : 0

Track 02
Filename : /Olivier Messiaen - Intégrale de l'œuvre d'orgue - Grand Orgue de l'Église de la Trinité - Paris [Jade]/CD 3/02 L'Ascension [1934]: II. Alléluias sereins d'une âme qui désire le ciel.flac

Track gain : 15.77 dB
Peak : 0.096436
CRC32 hash (test run) : 61DFA641
CRC32 hash : 61DFA641
CRC32 hash (skip zero) : 551A9D7A
AccurateRip v1 signature : 9DCE6ACF
AccurateRip v2 signature : 4C1E69D9
->Accurately ripped (v1+v2, confidence 2+2/4)
Statistics
Read error : 0
Jitter error (maybe fixed) : 0
Retry sector count : 0
Damaged sector count : 0

Track 03
Filename : /Olivier Messiaen - Intégrale de l'œuvre d'orgue - Grand Orgue de l'Église de la Trinité - Paris [Jade]/CD 3/03 L'Ascension [1934]: III. Transports de joie d'une âme devant la gloire du Christ qui est la sienne.flac

Track gain : -1.31 dB
Peak : 0.873871
CRC32 hash (test run) : AE71E5C8
CRC32 hash : AE71E5C8
CRC32 hash (skip zero) : BB2DA922
AccurateRip v1 signature : F6A7EC5C
AccurateRip v2 signature : 51720E40
->Accurately ripped (v1+v2, confidence 2+2/4)
Statistics
Read error : 0
Jitter error (maybe fixed) : 0
Retry sector count : 0
Damaged sector count : 0

Track 04
Filename : /Olivier Messiaen - Intégrale de l'œuvre d'orgue - Grand Orgue de l'Église de la Trinité - Paris [Jade]/CD 3/04 L'Ascension [1934]: IV. Prière du Christ montant vers son Père.flac

Track gain : 11.90 dB
Peak : 0.148163
CRC32 hash (test run) : A2E94A62
CRC32 hash : A2E94A62
CRC32 hash (skip zero) : B53D05D3
AccurateRip v1 signature : C12A62EA
AccurateRip v2 signature : ACA4D523
->Accurately ripped (v1+v2, confidence 2+2/4)
Statistics
Read error : 0
Jitter error (maybe fixed) : 0
Retry sector count : 0
Damaged sector count : 0

Track 05
Filename : /Olivier Messiaen - Intégrale de l'œuvre d'orgue - Grand Orgue de l'Église de la Trinité - Paris [Jade]/CD 3/05 Messe de la Pentecôte [1950]: I. Les langues de feu.flac

Track gain : 17.05 dB
Peak : 0.069519
CRC32 hash (test run) : BE30B8BF
CRC32 hash : BE30B8BF
CRC32 hash (skip zero) : C8B41D3C
AccurateRip v1 signature : 73696D03
AccurateRip v2 signature : 5FDCD3C5
->Accurately ripped (v1+v2, confidence 2+2/4)
Statistics
Read error : 0
Jitter error (maybe fixed) : 0
Retry sector count : 0
Damaged sector count : 0

Track 06
Filename : /Olivier Messiaen - Intégrale de l'œuvre d'orgue - Grand Orgue de l'Église de la Trinité - Paris [Jade]/CD 3/06 Messe de la Pentecôte [1950]: II. Les choses visibles et invisibles.flac

Track gain : 10.90 dB
Peak : 0.406250
CRC32 hash (test run) : 0649B46E
CRC32 hash : 0649B46E
CRC32 hash (skip zero) : 6914DE12
AccurateRip v1 signature : F57EA197
AccurateRip v2 signature : D3034E17
->Accurately ripped (v1+v2, confidence 2+2/4)
Statistics
Read error : 0
Jitter error (maybe fixed) : 0
Retry sector count : 0
Damaged sector count : 0

Track 07
Filename : /Olivier Messiaen - Intégrale de l'œuvre d'orgue - Grand Orgue de l'Église de la Trinité - Paris [Jade]/CD 3/07 Messe de la Pentecôte [1950]: III. Le don de la Sagesse.flac

Track gain : 16.62 dB
Peak : 0.111572
CRC32 hash (test run) : C70DAD4A
CRC32 hash : C70DAD4A
CRC32 hash (skip zero) : 0DBEC97B
AccurateRip v1 signature : 7781BDEB
AccurateRip v2 signature : 06ED8B2E
->Accurately ripped (v1+v2, confidence 2+2/4)
Statistics
Read error : 0
Jitter error (maybe fixed) : 0
Retry sector count : 0
Damaged sector count : 0

Track 08
Filename : /Olivier Messiaen - Intégrale de l'œuvre d'orgue - Grand Orgue de l'Église de la Trinité - Paris [Jade]/CD 3/08 Messe de la Pentecôte [1950]: IV. Les oiseaux et les sources.flac

Track gain : 23.56 dB
Peak : 0.107178
CRC32 hash (test run) : DB37AD14
CRC32 hash : DB37AD14
CRC32 hash (skip zero) : C3C07E39
AccurateRip v1 signature : AF44140C
AccurateRip v2 signature : CC569271
->Accurately ripped (v1+v2, confidence 2+2/4)
Statistics
Read error : 0
Jitter error (maybe fixed) : 0
Retry sector count : 0
Damaged sector count : 0

Track 09
Filename : /Olivier Messiaen - Intégrale de l'œuvre d'orgue - Grand Orgue de l'Église de la Trinité - Paris [Jade]/CD 3/09 Messe de la Pentecôte [1950]: V. Le vent de l'Esprit.flac

Track gain : -0.98 dB
Peak : 1.000000
CRC32 hash (test run) : 06CDBE50
CRC32 hash : 06CDBE50
CRC32 hash (skip zero) : CC651FB3
AccurateRip v1 signature : ED11D5F1
AccurateRip v2 signature : B1FDF02A
->Accurately ripped (v1+v2, confidence 2+2/4)
Statistics
Read error : 0
Jitter error (maybe fixed) : 0
Retry sector count : 0
Damaged sector count : 0

No errors occurred

End of status report

––-BEGIN XLD SIGNATURE––-
O30REMpqtFb24WqFUZAhNNDSYQcRhKZ5eFAuYMkx9KnY7knIIA8dlktgnb6cbnsxkJvv4wwWwjCej8n1P94EO5Vt8XGTwCuJDfcgIfO
––-END XLD SIGNATURE––-

X Lossless Decoder version 20151214 (149.1)

XLD extraction logfile from 2016-02-07 14:06:07 +0100

Various Artists / Olivier Messiaen - Intégrale de l'œuvre d'orgue - Grand Orgue de l'Église de la Trinité - Paris [Jade]

Used drive : TSSTcorp CDDVDW SE-S084D (revision TS01)
Media type : Pressed CD

Ripper mode : XLD Secure Ripper
Disable audio cache : OK for the drive with a cache less than 1375KiB
Make use of C2 pointers : NO
Read offset correction : 6
Max retry count : 100
Gap status : Analyzed, Appended (except HTOA)

TOC of the extracted CD
Track | Start | Length | Start sector | End sector
––––––––––––––––––––––––––––-
1 | 00:00:00 | 08:35:12 | 0 | 38636
2 | 08:35:12 | 05:32:58 | 38637 | 63594
3 | 14:07:70 | 02:18:45 | 63595 | 73989
4 | 16:26:40 | 07:28:07 | 73990 | 107596
5 | 23:54:47 | 07:46:50 | 107597 | 142596
6 | 31:41:22 | 08:13:68 | 142597 | 179639
7 | 39:55:15 | 01:55:25 | 179640 | 188289
8 | 41:50:40 | 09:01:22 | 188290 | 228886
9 | 50:51:62 | 08:33:25 | 228887 | 267386

AccurateRip Summary (DiscID: 0013b17c-00904688-820ded09)
Track 01 : OK (v1, confidence 2/2)
Track 02 : OK (v1, confidence 2/2)
Track 03 : OK (v1, confidence 2/2)
Track 04 : OK (v1, confidence 2/2)
Track 05 : OK (v1, confidence 2/2)
Track 06 : OK (v1, confidence 2/2)
Track 07 : OK (v1, confidence 2/2)
Track 08 : OK (v2, confidence 2/2)
Track 09 : OK (v1, confidence 2/2)
->All tracks accurately ripped.

All Tracks
Album gain : 1.80 dB
Peak : 0.807526
Statistics
Read error : 0
Jitter error (maybe fixed) : 0
Retry sector count : 0
Damaged sector count : 0

Track 01
Filename : /Olivier Messiaen - Intégrale de l'œuvre d'orgue - Grand Orgue de l'Église de la Trinité - Paris [Jade]/CD 4/01 Apparition de l'Église Éternelle [1932].flac
Pre-gap length : 00:02:00

Track gain : -0.24 dB
Peak : 0.807526
CRC32 hash (test run) : 059366F9
CRC32 hash : 059366F9
CRC32 hash (skip zero) : 508A62F4
AccurateRip v1 signature : 26C1A3C2
AccurateRip v2 signature : 745B5008
->Accurately ripped (v1, confidence 2/2)
Statistics
Read error : 0
Jitter error (maybe fixed) : 0
Retry sector count : 0
Damaged sector count : 0

Track 02
Filename : /Olivier Messiaen - Intégrale de l'œuvre d'orgue - Grand Orgue de l'Église de la Trinité - Paris [Jade]/CD 4/02 Livre d'Orgue [1951]: I. Reprises par interversion.flac

Track gain : 9.38 dB
Peak : 0.194458
CRC32 hash (test run) : 147B96CE
CRC32 hash : 147B96CE
CRC32 hash (skip zero) : 9E3D1F41
AccurateRip v1 signature : EC6F0EA4
AccurateRip v2 signature : 4C4AF685
->Accurately ripped (v1, confidence 2/2)
Statistics
Read error : 0
Jitter error (maybe fixed) : 0
Retry sector count : 0
Damaged sector count : 0

Track 03
Filename : /Olivier Messiaen - Intégrale de l'œuvre d'orgue - Grand Orgue de l'Église de la Trinité - Paris [Jade]/CD 4/03 Livre d'Orgue [1951]: II. Pièce en trio.flac

Track gain : 15.09 dB
Peak : 0.138824
CRC32 hash (test run) : 486EF271
CRC32 hash : 486EF271
CRC32 hash (skip zero) : D6F0DD76
AccurateRip v1 signature : 75A9BDAB
AccurateRip v2 signature : CA35017F
->Accurately ripped (v1, confidence 2/2)
Statistics
Read error : 0
Jitter error (maybe fixed) : 0
Retry sector count : 0
Damaged sector count : 0

Track 04
Filename : /Olivier Messiaen - Intégrale de l'œuvre d'orgue - Grand Orgue de l'Église de la Trinité - Paris [Jade]/CD 4/04 Livre d'Orgue [1951]: III. Les Mains de l'abîme.flac

Track gain : 0.57 dB
Peak : 0.624939
CRC32 hash (test run) : 137020A6
CRC32 hash : 137020A6
CRC32 hash (skip zero) : C5F53671
AccurateRip v1 signature : A869F04B
AccurateRip v2 signature : 3CDAAF29
->Accurately ripped (v1, confidence 2/2)
Statistics
Read error : 0
Jitter error (maybe fixed) : 0
Retry sector count : 0
Damaged sector count : 0

Track 05
Filename : /Olivier Messiaen - Intégrale de l'œuvre d'orgue - Grand Orgue de l'Église de la Trinité - Paris [Jade]/CD 4/05 Livre d'Orgue [1951]: IV. Chants d'oiseaux.flac

Track gain : 23.98 dB
Peak : 0.064484
CRC32 hash (test run) : 23164D0E
CRC32 hash : 23164D0E
CRC32 hash (skip zero) : 0A6D0CAF
AccurateRip v1 signature : A39E2627
AccurateRip v2 signature : 2FE200AC
->Accurately ripped (v1, confidence 2/2)
Statistics
Read error : 0
Jitter error (maybe fixed) : 0
Retry sector count : 0
Damaged sector count : 0

Track 06
Filename : /Olivier Messiaen - Intégrale de l'œuvre d'orgue - Grand Orgue de l'Église de la Trinité - Paris [Jade]/CD 4/06 Livre d'Orgue [1951]: V. Pièce en trio.flac

Track gain : 15.06 dB
Peak : 0.120941
CRC32 hash (test run) : AB3165E5
CRC32 hash : AB3165E5
CRC32 hash (skip zero) : 3C7EC110
AccurateRip v1 signature : D6C1948E
AccurateRip v2 signature : 1812F016
->Accurately ripped (v1, confidence 2/2)
Statistics
Read error : 0
Jitter error (maybe fixed) : 0
Retry sector count : 0
Damaged sector count : 0

Track 07
Filename : /Olivier Messiaen - Intégrale de l'œuvre d'orgue - Grand Orgue de l'Église de la Trinité - Paris [Jade]/CD 4/07 Livre d'Orgue [1951]: VI. Les Yeux dans les roues.flac

Track gain : 1.47 dB
Peak : 0.572052
CRC32 hash (test run) : CEC25005
CRC32 hash : CEC25005
CRC32 hash (skip zero) : 490453E5
AccurateRip v1 signature : 4E607279
AccurateRip v2 signature : 311B222A
->Accurately ripped (v1, confidence 2/2)
Statistics
Read error : 0
Jitter error (maybe fixed) : 0
Retry sector count : 0
Damaged sector count : 0

Track 08
Filename : /Olivier Messiaen - Intégrale de l'œuvre d'orgue - Grand Orgue de l'Église de la Trinité - Paris [Jade]/CD 4/08 Livre d'Orgue [1951]: VII. Soixante-quatre durées.flac

Track gain : 17.45 dB
Peak : 0.102264
CRC32 hash (test run) : 69AA5E8C
CRC32 hash : 69AA5E8C
CRC32 hash (skip zero) : CBEF0091
AccurateRip v1 signature : F041DAB9
AccurateRip v2 signature : 21ABC3F2
->Accurately ripped (v2, confidence 2/2)
Statistics
Read error : 0
Jitter error (maybe fixed) : 0
Retry sector count : 0
Damaged sector count : 0

Track 09
Filename : /Olivier Messiaen - Intégrale de l'œuvre d'orgue - Grand Orgue de l'Église de la Trinité - Paris [Jade]/CD 4/09 Verset pour la Fête de la Dédicace [1960].flac

Track gain : 10.99 dB
Peak : 0.186066
CRC32 hash (test run) : 42FDE5EF
CRC32 hash : 42FDE5EF
CRC32 hash (skip zero) : D4362809
AccurateRip v1 signature : 16545052
AccurateRip v2 signature : C24F0FF6
->Accurately ripped (v1, confidence 2/2)
Statistics
Read error : 0
Jitter error (maybe fixed) : 0
Retry sector count : 0
Damaged sector count : 0

No errors occurred

End of status report

––-BEGIN XLD SIGNATURE––-
9ShIYvRObqWGpGSrszLbPH0hirE94sMQbdHkaP_hdlr7wwTMu7NwqrGoSKhHaPuBeB90yBklOgzTbFBp5frH9UPuEmPdRAv05RQtNkS
––-END XLD SIGNATURE––-

X Lossless Decoder version 20151214 (149.1)

XLD extraction logfile from 2016-02-07 13:01:39 +0100

Various Artists / Olivier Messiaen - Intégrale de l'œuvre d'orgue - Grand Orgue de l'Église de la Trinité - Paris [Jade]

Used drive : TSSTcorp CDDVDW SE-S084D (revision TS01)
Media type : Pressed CD

Ripper mode : XLD Secure Ripper
Disable audio cache : OK for the drive with a cache less than 1375KiB
Make use of C2 pointers : NO
Read offset correction : 6
Max retry count : 100
Gap status : Analyzed, Appended (except HTOA)

TOC of the extracted CD
Track | Start | Length | Start sector | End sector
––––––––––––––––––––––––––––-
1 | 00:00:00 | 10:22:45 | 0 | 46694
2 | 10:22:45 | 10:45:32 | 46695 | 95101
3 | 21:08:02 | 03:05:65 | 95102 | 109041
4 | 24:13:67 | 05:35:25 | 109042 | 134191
5 | 29:49:17 | 11:22:15 | 134192 | 185356
6 | 41:11:32 | 07:17:65 | 185357 | 218196
7 | 48:29:22 | 06:14:40 | 218197 | 246286
8 | 54:43:62 | 09:38:30 | 246287 | 289666
9 | 64:22:17 | 11:18:10 | 289667 | 340526

List of alternate offset correction values
# | Absolute | Relative | Confidence
–––––––––––––––––––––
1 | -658 | -664 | 2

AccurateRip Summary (DiscID: 0019682a-00b8c08b-7d11bc09)
Track 01 : OK (v1+v2, confidence 2/4)
Track 02 : OK (v1+v2, confidence 2/4)
Track 03 : OK (v1+v2, confidence 2/4)
Track 04 : OK (v1+v2, confidence 2/4)
Track 05 : OK (v1+v2, confidence 2/4)
Track 06 : OK (v1+v2, confidence 2/4)
Track 07 : OK (v1+v2, confidence 2/4)
Track 08 : OK (v1+v2, confidence 2/4)
Track 09 : OK (v1, confidence 1/4)
->All tracks accurately ripped.

All Tracks
Album gain : 1.79 dB
Peak : 0.933624
Statistics
Read error : 0
Jitter error (maybe fixed) : 0
Retry sector count : 0
Damaged sector count : 0

Track 01
Filename : /Olivier Messiaen - Intégrale de l'œuvre d'orgue - Grand Orgue de l'Église de la Trinité - Paris [Jade]/CD 5/01 Méditations sur le Mystère de la Sainte Trinité [1969]: I. Le Père Inengendré.flac
Pre-gap length : 00:02:00

Track gain : -0.99 dB
Peak : 0.837128
CRC32 hash (test run) : 6298B88B
CRC32 hash : 6298B88B
CRC32 hash (skip zero) : 072D716E
AccurateRip v1 signature : 4FFB90B9
AccurateRip v2 signature : D7C9B2F0
->Accurately ripped (v1+v2, confidence 1+1/4)
Statistics
Read error : 0
Jitter error (maybe fixed) : 0
Retry sector count : 0
Damaged sector count : 0

Track 02
Filename : /Olivier Messiaen - Intégrale de l'œuvre d'orgue - Grand Orgue de l'Église de la Trinité - Paris [Jade]/CD 5/02 Méditations sur le Mystère de la Sainte Trinité [1969]: II. La Sainteté de Jésus Christ.flac

Track gain : 9.09 dB
Peak : 0.294525
CRC32 hash (test run) : EB187336
CRC32 hash : EB187336
CRC32 hash (skip zero) : 2FB9363A
AccurateRip v1 signature : ECCF747B
AccurateRip v2 signature : BBA68314
->Accurately ripped (v1+v2, confidence 1+1/4)
Statistics
Read error : 0
Jitter error (maybe fixed) : 0
Retry sector count : 0
Damaged sector count : 0

Track 03
Filename : /Olivier Messiaen - Intégrale de l'œuvre d'orgue - Grand Orgue de l'Église de la Trinité - Paris [Jade]/CD 5/03 Méditations sur le Mystère de la Sainte Trinité [1969]: III. La relation réelle en Dieu est réellement identique à l'essence.flac

Track gain : 8.87 dB
Peak : 0.319702
CRC32 hash (test run) : 1AED9F1E
CRC32 hash : 1AED9F1E
CRC32 hash (skip zero) : 5CA34A04
AccurateRip v1 signature : 879C1E4F
AccurateRip v2 signature : 458B8115
->Accurately ripped (v1+v2, confidence 1+1/4)
Statistics
Read error : 0
Jitter error (maybe fixed) : 0
Retry sector count : 0
Damaged sector count : 0

Track 04
Filename : /Olivier Messiaen - Intégrale de l'œuvre d'orgue - Grand Orgue de l'Église de la Trinité - Paris [Jade]/CD 5/04 Méditations sur le Mystère de la Sainte Trinité [1969]: IV. Je suis, Je suis!.flac

Track gain : 9.44 dB
Peak : 0.526001
CRC32 hash (test run) : 3E2AC5D2
CRC32 hash : 3E2AC5D2
CRC32 hash (skip zero) : E181E675
AccurateRip v1 signature : 4354DB01
AccurateRip v2 signature : B8A8902E
->Accurately ripped (v1+v2, confidence 1+1/4)
Statistics
Read error : 0
Jitter error (maybe fixed) : 0
Retry sector count : 0
Damaged sector count : 0

Track 05
Filename : /Olivier Messiaen - Intégrale de l'œuvre d'orgue - Grand Orgue de l'Église de la Trinité - Paris [Jade]/CD 5/05 Méditations sur le Mystère de la Sainte Trinité [1969]: V. Dieu est Immense, Éternel, Immuable - Le Souffle de l'Esprit - Dieu est Amour.flac

Track gain : 2.49 dB
Peak : 0.802124
CRC32 hash (test run) : D25BC243
CRC32 hash : D25BC243
CRC32 hash (skip zero) : ABDB7CAE
AccurateRip v1 signature : EE3F84CB
AccurateRip v2 signature : 9A666075
->Accurately ripped (v1+v2, confidence 1+1/4)
Statistics
Read error : 0
Jitter error (maybe fixed) : 0
Retry sector count : 0
Damaged sector count : 0

Track 06
Filename : /Olivier Messiaen - Intégrale de l'œuvre d'orgue - Grand Orgue de l'Église de la Trinité - Paris [Jade]/CD 5/06 Méditations sur le Mystère de la Sainte Trinité [1969]: VI. Le Fils, Verbe et Lumière.flac

Track gain : -0.78 dB
Peak : 0.933624
CRC32 hash (test run) : 288521D5
CRC32 hash : 288521D5
CRC32 hash (skip zero) : 05E855E5
AccurateRip v1 signature : 875F3DD1
AccurateRip v2 signature : 3D0466F7
->Accurately ripped (v1+v2, confidence 1+1/4)
Statistics
Read error : 0
Jitter error (maybe fixed) : 0
Retry sector count : 0
Damaged sector count : 0

Track 07
Filename : /Olivier Messiaen - Intégrale de l'œuvre d'orgue - Grand Orgue de l'Église de la Trinité - Paris [Jade]/CD 5/07 Méditations sur le Mystère de la Sainte Trinité [1969]: VII. Le Père et le Fils aiment par le Saint-Esprit eux-mêmes et nous.flac

Track gain : 13.13 dB
Peak : 0.239929
CRC32 hash (test run) : A1E256DC
CRC32 hash : A1E256DC
CRC32 hash (skip zero) : 17D5784A
AccurateRip v1 signature : 89475340
AccurateRip v2 signature : 1A87010C
->Accurately ripped (v1+v2, confidence 1+1/4)
Statistics
Read error : 0
Jitter error (maybe fixed) : 0
Retry sector count : 0
Damaged sector count : 0

Track 08
Filename : /Olivier Messiaen - Intégrale de l'œuvre d'orgue - Grand Orgue de l'Église de la Trinité - Paris [Jade]/CD 5/08 Méditations sur le Mystère de la Sainte Trinité [1969]: VIII. Dieu est simple.flac

Track gain : 14.71 dB
Peak : 0.175903
CRC32 hash (test run) : 098FD57D
CRC32 hash : 098FD57D
CRC32 hash (skip zero) : 15C91798
AccurateRip v1 signature : 9D4DF20C
AccurateRip v2 signature : 73C4E57B
->Accurately ripped (v1+v2, confidence 1+1/4)
Statistics
Read error : 0
Jitter error (maybe fixed) : 0
Retry sector count : 0
Damaged sector count : 0

Track 09
Filename : /Olivier Messiaen - Intégrale de l'œuvre d'orgue - Grand Orgue de l'Église de la Trinité - Paris [Jade]/CD 5/09 Méditations sur le Mystère de la Sainte Trinité [1969]: IX. Je suis Celui qui suis.flac

Track gain : -2.02 dB
Peak : 0.912750
CRC32 hash (test run) : 2331B052
CRC32 hash : 2331B052
CRC32 hash (skip zero) : 6B698ECD
AccurateRip v1 signature : 6BC22345
AccurateRip v2 signature : 05574D95
->Accurately ripped (v1, confidence 1/4)
Statistics
Read error : 0
Jitter error (maybe fixed) : 0
Retry sector count : 0
Damaged sector count : 0

No errors occurred

End of status report

––-BEGIN XLD SIGNATURE––-
zMFlnPvlD7G2HiVJ_5SjVGoPI9xp5.eR.EBHCna8m6MQpm2fJnp.DPspmZogXqddh__nMFnCPQisqMvqtE5kmVzevqQGYy3TCSqfrVW
––-END XLD SIGNATURE––-

X Lossless Decoder version 20151214 (149.1)

XLD extraction logfile from 2016-02-07 14:31:58 +0100

Various Artists / Olivier Messiaen - Intégrale de l'œuvre d'orgue - Grand Orgue de l'Église de la Trinité - Paris [Jade]

Used drive : TSSTcorp CDDVDW SE-S084D (revision TS01)
Media type : Pressed CD

Ripper mode : XLD Secure Ripper
Disable audio cache : OK for the drive with a cache less than 1375KiB
Make use of C2 pointers : NO
Read offset correction : 6
Max retry count : 100
Gap status : Analyzed, Appended (except HTOA)

TOC of the extracted CD
Track | Start | Length | Start sector | End sector
––––––––––––––––––––––––––––-
1 | 00:00:00 | 05:34:57 | 0 | 25106
2 | 05:34:57 | 03:00:20 | 25107 | 38626
3 | 08:35:02 | 08:13:10 | 38627 | 75611
4 | 16:48:12 | 02:26:00 | 75612 | 86561
5 | 19:14:12 | 06:15:08 | 86562 | 114694
6 | 25:29:20 | 13:12:40 | 114695 | 174134
7 | 38:41:60 | 04:07:32 | 174135 | 192691
8 | 42:49:17 | 07:15:48 | 192692 | 225364
9 | 50:04:65 | 06:07:25 | 225365 | 252914
10 | 56:12:15 | 08:28:25 | 252915 | 291039
11 | 64:40:40 | 13:06:17 | 291040 | 350006

List of alternate offset correction values
# | Absolute | Relative | Confidence
–––––––––––––––––––––
1 | -436 | -442 | 2

AccurateRip Summary (DiscID: 001bdfc5-00f8dae4-7c123a0b)
Track 01 : OK (v2, confidence 2/2)
Track 02 : OK (v2, confidence 2/2)
Track 03 : OK (v2, confidence 2/2)
Track 04 : OK (v2, confidence 2/2)
Track 05 : OK (v2, confidence 2/2)
Track 06 : OK (v2, confidence 2/2)
Track 07 : OK (v2, confidence 2/2)
Track 08 : OK (v2, confidence 2/2)
Track 09 : OK (v2, confidence 2/2)
Track 10 : OK (v2, confidence 2/2)
Track 11 : OK (v2, confidence 1/4)
->All tracks accurately ripped.

All Tracks
Album gain : 0.35 dB
Peak : 0.855133
Statistics
Read error : 0
Jitter error (maybe fixed) : 0
Retry sector count : 0
Damaged sector count : 0

Track 01
Filename : /Olivier Messiaen - Intégrale de l'œuvre d'orgue - Grand Orgue de l'Église de la Trinité - Paris [Jade]/CD 6/01 Livre du Saint Sacrement [1984]: I. Adoro te.flac
Pre-gap length : 00:02:00

Track gain : 3.19 dB
Peak : 0.582214
CRC32 hash (test run) : 8C86DDDD
CRC32 hash : 8C86DDDD
CRC32 hash (skip zero) : 01F5375D
AccurateRip v1 signature : 5D3688BD
AccurateRip v2 signature : 1F5B5302
->Accurately ripped (v2, confidence 2/2)
Statistics
Read error : 0
Jitter error (maybe fixed) : 0
Retry sector count : 0
Damaged sector count : 0

Track 02
Filename : /Olivier Messiaen - Intégrale de l'œuvre d'orgue - Grand Orgue de l'Église de la Trinité - Paris [Jade]/CD 6/02 Livre du Saint Sacrement [1984]: II. La Source de Vie.flac

Track gain : 24.28 dB
Peak : 0.032928
CRC32 hash (test run) : DC1E5CBF
CRC32 hash : DC1E5CBF
CRC32 hash (skip zero) : E0203AC7
AccurateRip v1 signature : 753D2116
AccurateRip v2 signature : 1B82309B
->Accurately ripped (v2, confidence 2/2)
Statistics
Read error : 0
Jitter error (maybe fixed) : 0
Retry sector count : 0
Damaged sector count : 0

Track 03
Filename : /Olivier Messiaen - Intégrale de l'œuvre d'orgue - Grand Orgue de l'Église de la Trinité - Paris [Jade]/CD 6/03 Livre du Saint Sacrement [1984]: III. Le Dieu caché.flac

Track gain : 18.73 dB
Peak : 0.154327
CRC32 hash (test run) : 29332C7C
CRC32 hash : 29332C7C
CRC32 hash (skip zero) : 8B9C0076
AccurateRip v1 signature : 757FDA02
AccurateRip v2 signature : BA605088
->Accurately ripped (v2, confidence 2/2)
Statistics
Read error : 0
Jitter error (maybe fixed) : 0
Retry sector count : 0
Damaged sector count : 0

Track 04
Filename : /Olivier Messiaen - Intégrale de l'œuvre d'orgue - Grand Orgue de l'Église de la Trinité - Paris [Jade]/CD 6/04 Livre du Saint Sacrement [1984]: IV. Acte de Foi.flac

Track gain : 4.36 dB
Peak : 0.426056
CRC32 hash (test run) : A7AB3DB1
CRC32 hash : A7AB3DB1
CRC32 hash (skip zero) : 880718AE
AccurateRip v1 signature : 02614922
AccurateRip v2 signature : C5EDE3D0
->Accurately ripped (v2, confidence 2/2)
Statistics
Read error : 0
Jitter error (maybe fixed) : 0
Retry sector count : 0
Damaged sector count : 0

Track 05
Filename : /Olivier Messiaen - Intégrale de l'œuvre d'orgue - Grand Orgue de l'Église de la Trinité - Paris [Jade]/CD 6/05 Livre du Saint Sacrement [1984]: V. Puer natus est nobis.flac

Track gain : 12.67 dB
Peak : 0.195709
CRC32 hash (test run) : CABD3F47
CRC32 hash : CABD3F47
CRC32 hash (skip zero) : 149E8111
AccurateRip v1 signature : E845317D
AccurateRip v2 signature : 7411A4FB
->Accurately ripped (v2, confidence 2/2)
Statistics
Read error : 0
Jitter error (maybe fixed) : 0
Retry sector count : 0
Damaged sector count : 0

Track 06
Filename : /Olivier Messiaen - Intégrale de l'œuvre d'orgue - Grand Orgue de l'Église de la Trinité - Paris [Jade]/CD 6/06 Livre du Saint Sacrement [1984]: VI. La manne et la Pain de Vie.flac

Track gain : 15.07 dB
Peak : 0.151123
CRC32 hash (test run) : 7DD7535A
CRC32 hash : 7DD7535A
CRC32 hash (skip zero) : 12FD32D2
AccurateRip v1 signature : EB3CDC50
AccurateRip v2 signature : 85EFE07F
->Accurately ripped (v2, confidence 2/2)
Statistics
Read error : 0
Jitter error (maybe fixed) : 0
Retry sector count : 0
Damaged sector count : 0

Track 07
Filename : /Olivier Messiaen - Intégrale de l'œuvre d'orgue - Grand Orgue de l'Église de la Trinité - Paris [Jade]/CD 6/07 Livre du Saint Sacrement [1984]: VII. Les ressuscités et la lumière de Vie.flac

Track gain : 1.32 dB
Peak : 0.680176
CRC32 hash (test run) : 35293ABA
CRC32 hash : 35293ABA
CRC32 hash (skip zero) : 6738510D
AccurateRip v1 signature : 677C52EE
AccurateRip v2 signature : F01794B0
->Accurately ripped (v2, confidence 2/2)
Statistics
Read error : 0
Jitter error (maybe fixed) : 0
Retry sector count : 0
Damaged sector count : 0

Track 08
Filename : /Olivier Messiaen - Intégrale de l'œuvre d'orgue - Grand Orgue de l'Église de la Trinité - Paris [Jade]/CD 6/08 Livre du Saint Sacrement [1984]: VIII. Institution de I'Eucharistie.flac

Track gain : 15.76 dB
Peak : 0.183228
CRC32 hash (test run) : 95451DFA
CRC32 hash : 95451DFA
CRC32 hash (skip zero) : 7090712E
AccurateRip v1 signature : 2DA0F526
AccurateRip v2 signature : 0675350B
->Accurately ripped (v2, confidence 2/2)
Statistics
Read error : 0
Jitter error (maybe fixed) : 0
Retry sector count : 0
Damaged sector count : 0

Track 09
Filename : /Olivier Messiaen - Intégrale de l'œuvre d'orgue - Grand Orgue de l'Église de la Trinité - Paris [Jade]/CD 6/09 Livre du Saint Sacrement [1984]: IX. Les ténèbres.flac

Track gain : 0.79 dB
Peak : 0.621552
CRC32 hash (test run) : 8ECE6D66
CRC32 hash : 8ECE6D66
CRC32 hash (skip zero) : 2B94384B
AccurateRip v1 signature : 63503B39
AccurateRip v2 signature : 21555BD9
->Accurately ripped (v2, confidence 2/2)
Statistics
Read error : 0
Jitter error (maybe fixed) : 0
Retry sector count : 0
Damaged sector count : 0

Track 10
Filename : /Olivier Messiaen - Intégrale de l'œuvre d'orgue - Grand Orgue de l'Église de la Trinité - Paris [Jade]/CD 6/10 Livre du Saint Sacrement [1984]: X. La Résurrection du Christ.flac

Track gain : -1.39 dB
Peak : 0.855133
CRC32 hash (test run) : 78BE5D34
CRC32 hash : 78BE5D34
CRC32 hash (skip zero) : 66939EE4
AccurateRip v1 signature : A8783B1A
AccurateRip v2 signature : A672A6F7
->Accurately ripped (v2, confidence 2/2)
Statistics
Read error : 0
Jitter error (maybe fixed) : 0
Retry sector count : 0
Damaged sector count : 0

Track 11
Filename : /Olivier Messiaen - Intégrale de l'œuvre d'orgue - Grand Orgue de l'Église de la Trinité - Paris [Jade]/CD 6/11 Livre du Saint Sacrement [1984]: XI. L'apparition du Christ ressuscité à Marie-Madeleine.flac

Track gain : 2.88 dB
Peak : 0.554443
CRC32 hash (test run) : 239353DA
CRC32 hash : 239353DA
CRC32 hash (skip zero) : 5951681B
AccurateRip v1 signature : EA70617F
AccurateRip v2 signature : 5CEA8A73
->Accurately ripped (v2, confidence 1/4)
Statistics
Read error : 0
Jitter error (maybe fixed) : 0
Retry sector count : 0
Damaged sector count : 0

No errors occurred

End of status report

––-BEGIN XLD SIGNATURE––-
AweJJhgLI8.TIxctbL8hyaSi46fysyC.GqSgw.G21TNSX.VAIbxmsaFV6bhKp_WF5s_p4w4PMCj3eF7qv5A06WNYoNcdVqBPx.AAlFW
––-END XLD SIGNATURE––-

X Lossless Decoder version 20151214 (149.1)

XLD extraction logfile from 2016-02-07 15:00:13 +0100

Various Artists / Olivier Messiaen - Intégrale de l'œuvre d'orgue - Grand Orgue de l'Église de la Trinité - Paris [Jade]

Used drive : TSSTcorp CDDVDW SE-S084D (revision TS01)
Media type : Pressed CD

Ripper mode : XLD Secure Ripper
Disable audio cache : OK for the drive with a cache less than 1375KiB
Make use of C2 pointers : NO
Read offset correction : 6
Max retry count : 100
Gap status : Analyzed, Appended (except HTOA)

TOC of the extracted CD
Track | Start | Length | Start sector | End sector
––––––––––––––––––––––––––––-
1 | 00:00:00 | 06:22:47 | 0 | 28696
2 | 06:22:47 | 07:48:63 | 28697 | 63859
3 | 14:11:35 | 05:42:42 | 63860 | 89551
4 | 19:54:02 | 05:27:23 | 89552 | 114099
5 | 25:21:25 | 06:30:12 | 114100 | 143361
6 | 31:51:37 | 02:57:63 | 143362 | 156699
7 | 34:49:25 | 07:50:70 | 156700 | 192019

AccurateRip Summary (DiscID: 000c0743-004745c3-570a0007)
Track 01 : OK (v2, confidence 2/2)
Track 02 : OK (v2, confidence 2/2)
Track 03 : OK (v2, confidence 2/2)
Track 04 : OK (v2, confidence 2/2)
Track 05 : OK (v2, confidence 2/2)
Track 06 : OK (v2, confidence 2/2)
Track 07 : OK (v2, confidence 2/2)
->All tracks accurately ripped.

All Tracks
Album gain : 1.33 dB
Peak : 0.973083
Statistics
Read error : 0
Jitter error (maybe fixed) : 0
Retry sector count : 0
Damaged sector count : 0

Track 01
Filename : /Olivier Messiaen - Intégrale de l'œuvre d'orgue - Grand Orgue de l'Église de la Trinité - Paris [Jade]/CD 7/01 Livre du Saint Sacrement [1984]: XII. Le Transsubstantiation.flac
Pre-gap length : 00:02:00

Track gain : 12.01 dB
Peak : 0.239441
CRC32 hash (test run) : 23694CD5
CRC32 hash : 23694CD5
CRC32 hash (skip zero) : DCCCBE9D
AccurateRip v1 signature : D03D936B
AccurateRip v2 signature : 073CA642
->Accurately ripped (v2, confidence 2/2)
Statistics
Read error : 0
Jitter error (maybe fixed) : 0
Retry sector count : 0
Damaged sector count : 0

Track 02
Filename : /Olivier Messiaen - Intégrale de l'œuvre d'orgue - Grand Orgue de l'Église de la Trinité - Paris [Jade]/CD 7/02 Livre du Saint Sacrement [1984]: XIII. Les deux murailles d'eau.flac

Track gain : -0.55 dB
Peak : 0.973083
CRC32 hash (test run) : 76E6A63C
CRC32 hash : 76E6A63C
CRC32 hash (skip zero) : 7C54459E
AccurateRip v1 signature : 178BA8A9
AccurateRip v2 signature : FD460CC3
->Accurately ripped (v2, confidence 2/2)
Statistics
Read error : 0
Jitter error (maybe fixed) : 0
Retry sector count : 0
Damaged sector count : 0

Track 03
Filename : /Olivier Messiaen - Intégrale de l'œuvre d'orgue - Grand Orgue de l'Église de la Trinité - Paris [Jade]/CD 7/03 Livre du Saint Sacrement [1984]: XIV. Prière avant la communion.flac

Track gain : 22.18 dB
Peak : 0.052612
CRC32 hash (test run) : 684EEFAB
CRC32 hash : 684EEFAB
CRC32 hash (skip zero) : 95E37449
AccurateRip v1 signature : 2C66BD54
AccurateRip v2 signature : 6C5D3CC3
->Accurately ripped (v2, confidence 2/2)
Statistics
Read error : 0
Jitter error (maybe fixed) : 0
Retry sector count : 0
Damaged sector count : 0

Track 04
Filename : /Olivier Messiaen - Intégrale de l'œuvre d'orgue - Grand Orgue de l'Église de la Trinité - Paris [Jade]/CD 7/04 Livre du Saint Sacrement [1984]: XV. Le joie de le grâce.flac

Track gain : 17.99 dB
Peak : 0.089783
CRC32 hash (test run) : 6DDB44F8
CRC32 hash : 6DDB44F8
CRC32 hash (skip zero) : AF26E6B7
AccurateRip v1 signature : DB2F55A4
AccurateRip v2 signature : F7C96591
->Accurately ripped (v2, confidence 2/2)
Statistics
Read error : 0
Jitter error (maybe fixed) : 0
Retry sector count : 0
Damaged sector count : 0

Track 05
Filename : /Olivier Messiaen - Intégrale de l'œuvre d'orgue - Grand Orgue de l'Église de la Trinité - Paris [Jade]/CD 7/05 Livre du Saint Sacrement [1984]: XVI. Prière après le communion.flac

Track gain : 22.18 dB
Peak : 0.114197
CRC32 hash (test run) : D46F13FD
CRC32 hash : D46F13FD
CRC32 hash (skip zero) : DBCE4F14
AccurateRip v1 signature : F7963D9D
AccurateRip v2 signature : 513485F4
->Accurately ripped (v2, confidence 2/2)
Statistics
Read error : 0
Jitter error (maybe fixed) : 0
Retry sector count : 0
Damaged sector count : 0

Track 06
Filename : /Olivier Messiaen - Intégrale de l'œuvre d'orgue - Grand Orgue de l'Église de la Trinité - Paris [Jade]/CD 7/06 Livre du Saint Sacrement [1984]: XVII. La Présence multipliée.flac

Track gain : -0.83 dB
Peak : 0.855316
CRC32 hash (test run) : BA6527A8
CRC32 hash : BA6527A8
CRC32 hash (skip zero) : F9A5B9E1
AccurateRip v1 signature : 63152F60
AccurateRip v2 signature : 3B32D54A
->Accurately ripped (v2, confidence 2/2)
Statistics
Read error : 0
Jitter error (maybe fixed) : 0
Retry sector count : 0
Damaged sector count : 0

Track 07
Filename : /Olivier Messiaen - Intégrale de l'œuvre d'orgue - Grand Orgue de l'Église de la Trinité - Paris [Jade]/CD 7/07 Livre du Saint Sacrement [1984]: XVIII. Offrande et Alléluia final.flac

Track gain : 0.28 dB
Peak : 0.945251
CRC32 hash (test run) : AAD16A29
CRC32 hash : AAD16A29
CRC32 hash (skip zero) : 3DE276A7
AccurateRip v1 signature : 3A66246E
AccurateRip v2 signature : 9F876728
->Accurately ripped (v2, confidence 2/2)
Statistics
Read error : 0
Jitter error (maybe fixed) : 0
Retry sector count : 0
Damaged sector count : 0

No errors occurred

End of status report

––-BEGIN XLD SIGNATURE––-
a3X4ShDVoSgIyfbjYVRKcqlsP_Gx0tVbu80hoM8U_SIVR1wlwBZvqKAxK7OjJHdDeB__QXvhDMU_aYsFyHRsAgGNsa.8C2Hk6F_tVqO
––-END XLD SIGNATURE––-


Thanks to the Original customer.