Subcategories

Paolo Conte - Live Arena Di Verona (2CD) (2005)

Posted By: Domestos
Paolo Conte - Live Arena Di Verona (2CD) (2005)

Paolo Conte - Live Arena Di Verona (2CD) (2005)
EAC Rip | FLAC (tracks+.cue, log) ~ 259.39 Mb + 293.96 Mb + 12.66 Mb (Scans) | 0:45:56+0:50:11
Jazz-Pop, Chanson | Country: Italy | Label: Warner Music Vision

Quanti live sono usciti di Paolo Conte? Si ha perfino paura di dimenticarne qualcuno, comunque se la memoria ed i libri non mi ingannano dovremmo essere a cinque. Poco importa visto che ogni concerto di Conte è un’esperienza nuova, dove il musicista astigiano gioca con l’orchestrazione in modo diverso e si diverte ad inventare nuove forme sonore per cercare di comunicare quei noccioli ermetici, scritti da uno spirito enigmista, che sono i suoi testi.

Importa ancora meno in questo caso quanti siano i dischi dal vivo di Conte, visto che il live di cui stiamo parlando acquista una particolare importanza per il luogo dove si è svolto. L’Arena di Verona è uno dei teatri lirici più prestigiosi d’Italia, che porta con sé anni di rappresentazioni e di musica colta.
Dopo un album come “Elegia”, così classico e delicato, Conte deve aver pensato che era il momento giusto per registrarsi dal vivo in un teatro lirico. Forte della sua esperienza anche in molti altri teatri, si dimostra perfettamente a suo agio, scherza anche sul finale di “Madeleine” abbracciando Velotti e Pitz seduti al pianoforte. Come lui sono a proprio agio anche i musicisti che da anni lo accompagnano in tour, ma soprattutto lo sono i suoi brani che si estendono e colmano gli spazi di un’Arena piena di persone.
Il repertorio proposto è quello che ha costituito la scaletta dell’ultimo tour: vengono quindi proposti parecchi brani di “Elegia”, i soliti immancabili classici come la bella “Sparring partner”, in questo caso aperta dalle frasi di bandoneon, “Come-di”, la lunga ed impetuosa “Diavolo rosso” e ovviamente “Via con me”.
Più divertente andare a vedere quelle che sono state le sorprese di questo live, una ad esempio potrebbe essere “Bartali”, oppure “Lo zio”, cantata in piedi.
Fa piacere risentire arrangiate diversamente anche “Lupi spelacchiati” e “Gioco d’azzardo”, quest’ ultima totalmente acustica. Perfettamente a loro agio sono i vortici raveliani della stupenda “Max”. Di notevole impatto risulta essere “Eden”, mentre decisamente ammaliante e sensuale è “Alle prese con una verde milonga” ritmata da percussioni.
Ben fatte le riprese del DVD ed interessante anche il backstage e l’intervista, dove Conte introduce il pubblico ai brani del nuovo disco, svelando qualche trucco della sua scrittura sempre più segreta, come per “Frisco”, che l’autore dice essere contrazione di San Francisco e poi non rivelo altro sulla stesura del testo.
Insomma è la solita grande qualità di un grande artista che indubbiamente merita tutto questo.

Track List CD1:
01. Cuanta Passion (3:07)
02. La Donna D'inverno (4:46)
03. Sparring Partner (5:24)
04. Come-Di (4:13)
05. Elegia (3:49)
06. Sotto Le Stelle Del Jazz (2:55)
07. Alle Prese Con Una Verde Milonga (6:34)
08. Sandwich Man (3:10)
09. Schiava Del Politeama (3:41)
10. Genova Per Noi (3:09)
11. Via Con Me (2:29)
12. Molto Lontano (2:40)

Track List CD2:
01. Bartali (2:34)
02. Bamboolah (3:35)
03. Lo Zio (3:36)
04. Madeleine (4:00)
05. Chissa (3:33)
06. Lupi Spelacchiati (3:00)
07. Gioco D'azzardo (5:15)
08. Max (5:10)
09. Diavolo Rosso (10:49)
10. Eden (4:03)
11. La Vecchia Giacca Nuova (2:20)
12. Max (Bis) (2:19)

Paolo Conte - Live Arena Di Verona (2CD) (2005)

Exact Audio Copy V0.99 prebeta 4 from 23. January 2008

EAC extraction logfile from 1. January 2009, 3:26

Paolo Conte / Live-Arena Di Verona Cd1

Used drive : PLEXTOR CD-R PREMIUM2 Adapter: 1 ID: 1

Read mode : Secure
Utilize accurate stream : Yes
Defeat audio cache : Yes
Make use of C2 pointers : No

Read offset correction : 30
Overread into Lead-In and Lead-Out : No
Fill up missing offset samples with silence : Yes
Delete leading and trailing silent blocks : No
Null samples used in CRC calculations : Yes
Used interface : Installed external ASPI interface
Gap handling : Appended to previous track

Used output format : User Defined Encoder
Selected bitrate : 32 kBit/s
Quality : High
Add ID3 tag : No
Command line compressor : C:\Programmi\FLAC\flac.exe
Additional command line options : -8 -V -T "ARTIST=%a" -T "TITLE=%t" -T "ALBUM=%g" -T "DATE=%y" -T "TRACKNUMBER=%n" -T "GENRE=%m" -T "COMMENT=EAC FLAC -8" %s


TOC of the extracted CD

Track | Start | Length | Start sector | End sector
––––––––––––––––––––––––––––-
1 | 0:00.00 | 3:07.02 | 0 | 14026
2 | 3:07.02 | 4:46.35 | 14027 | 35511
3 | 7:53.37 | 5:24.13 | 35512 | 59824
4 | 13:17.50 | 4:13.07 | 59825 | 78806
5 | 17:30.57 | 3:48.58 | 78807 | 95964
6 | 21:19.40 | 2:54.49 | 95965 | 109063
7 | 24:14.14 | 6:33.48 | 109064 | 138586
8 | 30:47.62 | 3:10.21 | 138587 | 152857
9 | 33:58.08 | 3:40.54 | 152858 | 169411
10 | 37:38.62 | 3:09.00 | 169412 | 183586
11 | 40:47.62 | 2:28.63 | 183587 | 194749
12 | 43:16.50 | 2:39.72 | 194750 | 206746


Track 1

Filename D:\My Rip\01 - Cuanta Passion.wav

Pre-gap length 0:00:02.00

Peak level 100.0 %
Track quality 100.0 %
Test CRC 7E39A0E9
Copy CRC 7E39A0E9
Accurately ripped (confidence 6) [4D4C1DF3]
Copy OK

Track 2

Filename D:\My Rip\02 - La Donna D'inverno.wav

Peak level 99.1 %
Track quality 100.0 %
Test CRC D646CD26
Copy CRC D646CD26
Accurately ripped (confidence 6) [9D0C7DCF]
Copy OK

Track 3

Filename D:\My Rip\03 - Sparring Partner.wav

Pre-gap length 0:00:12.52

Peak level 99.9 %
Track quality 100.0 %
Test CRC ADE3CE81
Copy CRC ADE3CE81
Accurately ripped (confidence 7) [42F36B5C]
Copy OK

Track 4

Filename D:\My Rip\04 - Come-Di.wav

Pre-gap length 0:00:10.00

Peak level 99.9 %
Track quality 100.0 %
Test CRC 18FF6B36
Copy CRC 18FF6B36
Accurately ripped (confidence 7) [FF5BB7D3]
Copy OK

Track 5

Filename D:\My Rip\05 - Elegia.wav

Pre-gap length 0:00:08.93

Peak level 99.4 %
Track quality 99.9 %
Test CRC C126D707
Copy CRC C126D707
Accurately ripped (confidence 7) [0ACB4BA5]
Copy OK

Track 6

Filename D:\My Rip\06 - Sotto Le Stelle Del Jazz.wav

Pre-gap length 0:00:07.02

Peak level 100.0 %
Track quality 99.9 %
Test CRC F90BE145
Copy CRC F90BE145
Accurately ripped (confidence 7) [FB5E8048]
Copy OK

Track 7

Filename D:\My Rip\07 - Alle Prese Con Una Verde Milonga.wav

Pre-gap length 0:00:04.88

Peak level 100.0 %
Track quality 100.0 %
Test CRC F0C57DE0
Copy CRC F0C57DE0
Accurately ripped (confidence 6) [399DCEFC]
Copy OK

Track 8

Filename D:\My Rip\08 - Sandwich Man.wav

Pre-gap length 0:00:05.17

Peak level 100.0 %
Track quality 99.9 %
Test CRC FDD790CD
Copy CRC FDD790CD
Accurately ripped (confidence 6) [F0060ECE]
Copy OK

Track 9

Filename D:\My Rip\09 - Schiava Del Politeama.wav

Pre-gap length 0:00:11.08

Peak level 99.9 %
Track quality 100.0 %
Test CRC 79D5248E
Copy CRC 79D5248E
Accurately ripped (confidence 6) [82DBADF5]
Copy OK

Track 10

Filename D:\My Rip\10 - Genova Per Noi.wav

Pre-gap length 0:00:07.34

Peak level 99.9 %
Track quality 100.0 %
Test CRC B10AD75A
Copy CRC B10AD75A
Accurately ripped (confidence 6) [F0CD8D0A]
Copy OK

Track 11

Filename D:\My Rip\11 - Via Con Me.wav

Pre-gap length 0:00:11.85

Peak level 100.0 %
Track quality 100.0 %
Test CRC B50E25BA
Copy CRC B50E25BA
Accurately ripped (confidence 7) [2FBC0F6E]
Copy OK

Track 12

Filename D:\My Rip\12 - Molto Lontano.wav

Pre-gap length 0:00:14.80

Peak level 98.8 %
Track quality 100.0 %
Test CRC 31A1A30D
Copy CRC 31A1A30D
Accurately ripped (confidence 6) [E6A415E8]
Copy OK


All tracks accurately ripped

No errors occurred

End of status report

Exact Audio Copy V0.99 prebeta 4 from 23. January 2008

EAC extraction logfile from 1. January 2009, 4:02

Paolo Conte / Live-Arena Di Verona Cd2

Used drive : PLEXTOR CD-R PREMIUM2 Adapter: 1 ID: 1

Read mode : Secure
Utilize accurate stream : Yes
Defeat audio cache : Yes
Make use of C2 pointers : No

Read offset correction : 30
Overread into Lead-In and Lead-Out : No
Fill up missing offset samples with silence : Yes
Delete leading and trailing silent blocks : No
Null samples used in CRC calculations : Yes
Used interface : Installed external ASPI interface
Gap handling : Appended to previous track

Used output format : User Defined Encoder
Selected bitrate : 32 kBit/s
Quality : High
Add ID3 tag : No
Command line compressor : C:\Programmi\FLAC\flac.exe
Additional command line options : -8 -V -T "ARTIST=%a" -T "TITLE=%t" -T "ALBUM=%g" -T "DATE=%y" -T "TRACKNUMBER=%n" -T "GENRE=%m" -T "COMMENT=EAC FLAC -8" %s


TOC of the extracted CD

Track | Start | Length | Start sector | End sector
––––––––––––––––––––––––––––-
1 | 0:00.00 | 2:33.58 | 0 | 11532
2 | 2:33.58 | 3:34.55 | 11533 | 27637
3 | 6:08.38 | 3:36.04 | 27638 | 43841
4 | 9:44.42 | 4:00.00 | 43842 | 61841
5 | 13:44.42 | 3:32.68 | 61842 | 77809
6 | 17:17.35 | 2:59.67 | 77810 | 91301
7 | 20:17.27 | 5:14.55 | 91302 | 114906
8 | 25:32.07 | 5:09.63 | 114907 | 138144
9 | 30:41.70 | 10:48.43 | 138145 | 186787
10 | 41:30.38 | 4:02.66 | 186788 | 205003
11 | 45:33.29 | 2:19.47 | 205004 | 215475
12 | 47:53.01 | 2:18.52 | 215476 | 225877


Track 1

Filename D:\My Rip\01 - Bartali.wav

Pre-gap length 0:00:02.00

Peak level 99.9 %
Track quality 99.9 %
Test CRC 0BB89FD1
Copy CRC 0BB89FD1
Accurately ripped (confidence 6) [47CDC46E]
Copy OK

Track 2

Filename D:\My Rip\02 - Bamboolah.wav

Pre-gap length 0:00:12.02

Peak level 99.9 %
Track quality 100.0 %
Test CRC 5C8DBC1F
Copy CRC 5C8DBC1F
Accurately ripped (confidence 6) [F6170DAE]
Copy OK

Track 3

Filename D:\My Rip\03 - Lo Zio.wav

Pre-gap length 0:00:10.25

Peak level 100.0 %
Track quality 100.0 %
Test CRC 42811FB2
Copy CRC 42811FB2
Accurately ripped (confidence 6) [99C3D63A]
Copy OK

Track 4

Filename D:\My Rip\04 - Madeleine.wav

Pre-gap length 0:00:14.12

Peak level 99.9 %
Track quality 100.0 %
Test CRC 90BC8BF0
Copy CRC 90BC8BF0
Accurately ripped (confidence 6) [5DA93533]
Copy OK

Track 5

Filename D:\My Rip\05 - Chissa.wav

Pre-gap length 0:00:06.41

Peak level 100.0 %
Track quality 100.0 %
Test CRC 053033BB
Copy CRC 053033BB
Accurately ripped (confidence 5) [9B8F9B0D]
Copy OK

Track 6

Filename D:\My Rip\06 - Lupi Spelacchiati.wav

Pre-gap length 0:00:14.89

Peak level 99.9 %
Track quality 100.0 %
Test CRC 065C1C64
Copy CRC 065C1C64
Accurately ripped (confidence 5) [BA37E9F2]
Copy OK

Track 7

Filename D:\My Rip\07 - Gioco D'azzardo.wav

Pre-gap length 0:00:13.90

Peak level 99.9 %
Track quality 100.0 %
Test CRC 92C40E07
Copy CRC 92C40E07
Accurately ripped (confidence 6) [5CC8CF64]
Copy OK

Track 8

Filename D:\My Rip\08 - Max.wav

Pre-gap length 0:00:07.82

Peak level 99.8 %
Track quality 100.0 %
Test CRC 7CB5AC67
Copy CRC 7CB5AC67
Accurately ripped (confidence 6) [869203C6]
Copy OK

Track 9

Filename D:\My Rip\09 - Diavolo Rosso.wav

Pre-gap length 0:00:10.52

Peak level 100.0 %
Track quality 100.0 %
Test CRC 9665943E
Copy CRC 9665943E
Accurately ripped (confidence 5) [F64AB54E]
Copy OK

Track 10

Filename D:\My Rip\10 - Eden.wav

Pre-gap length 0:00:16.96

Peak level 99.9 %
Track quality 100.0 %
Test CRC E2623E2F
Copy CRC E2623E2F
Accurately ripped (confidence 5) [CC9AF238]
Copy OK

Track 11

Filename D:\My Rip\11 - La Vecchia Giacca Nuova.wav

Pre-gap length 0:00:04.05

Peak level 99.3 %
Track quality 100.0 %
Test CRC 6AD4A782
Copy CRC 6AD4A782
Accurately ripped (confidence 5) [11894509]
Copy OK

Track 12

Filename D:\My Rip\12 - Max (Bis).wav

Pre-gap length 0:00:19.96

Peak level 100.0 %
Track quality 100.0 %
Test CRC 014FE563
Copy CRC 014FE563
Accurately ripped (confidence 5) [EC042D02]
Copy OK


All tracks accurately ripped

No errors occurred

End of status report

All thanks go to the Original ripper (unknown)

More Music in My Blog
Follow My RSS Channel