Subcategories

Paolo Conte - The Best Of Paolo Conte (1998) (Repost)

Posted By: Domestos
Paolo Conte - The Best Of Paolo Conte (1998) (Repost)

Paolo Conte - The Best Of Paolo Conte (1998)
EAC Rip | FLAC (tracks+.cue, log) ~ 425.71 Mb | 1:14:32 | Scans included
Jazz-Pop, Chanson | Country: Italy | Label: CGD East West

Paolo Conte's music is hypnotic. Though I hardly understand a word of Italian, the combination of Conte's voice, rendition, melodies, and arrangement is spellbinding. My 12 year old son calls it 'deep music'. All in all, it is not as easy listening as 'Aquaplano' (one of Conte's albums) but ultimately at least as rewarding. The collection includes 'Sparring Partner' that my son and I played over and over during the first few weeks that we owned the CD. It was literally addictive. 'Via con me', 'Boogie', and the classic 'Max' are equally attractive. Other tracks, such as 'Ho ballato di tutto' require a bit more careful listening before they draw you in, and they will. This collection is a very good introduction to Paolo Conte's works. Highly recommended.

Track List:
01 - Via Con Me (2:29)
02 - Sotto Le Stelle Del Jazz (3:34)
03 - Elisir (2:23)
04 - Boogie (5:52)
05 - Sparring Partner (4:12)
06 - Come Di (4:00)
07 - Azzurro (2:46)
08 - Gelato Al Limon (4:30)
09 - Happy Feet (3:24)
10 - Gli Impermeabili (3:55)
11 - Max (3:45)
12 - Gong-Oh (3:17)
13 - Colleghi Trascurati (3:39)
14 - Bartali (2:20)
15 - Alle Prese Con Una Verde Milonga (6:23)
16 - Dragon (4:12)
17 - Hemingway (4:53)
18 - Ho Ballato Di Tutto (2:52)
19 - Quadrille (2:48)
20 - Genova Per Noi (3:17)

Paolo Conte - The Best Of Paolo Conte (1998) (Repost)

EAC extraction logfile from 14. September 2006, 19:27 for CD
Paolo Conte / Best Of

Used drive : _NEC DVD_RW ND-3550A Adapter: 1 ID: 0
Read mode : Secure with NO C2, accurate stream, disable cache
Read offset correction : 48
Overread into Lead-In and Lead-Out : No

Used output format : Internal WAV Routines
44.100 Hz; 16 Bit; Stereo

Other options :
Fill up missing offset samples with silence : Yes
Delete leading and trailing silent blocks : No
Native Win32 interface for Win NT & 2000


Track 1
Filename C:\Documents and Settings\sam\Desktop\BT\seeds\Paolo Conte - The Best Of Paolo Conte (1987) [FLAC]\01 - Via Con Me.wav

Pre-gap length 0:00:02.42

Peak level 100.0 %
Track quality 100.0 %
Test CRC F3BD38A5
Copy CRC F3BD38A5
Copy OK

Track 2
Filename C:\Documents and Settings\sam\Desktop\BT\seeds\Paolo Conte - The Best Of Paolo Conte (1987) [FLAC]\02 - Sotto Le Stelle Del Jazz.wav

Peak level 100.0 %
Track quality 100.0 %
Test CRC 5F038AC9
Copy CRC 5F038AC9
Copy OK

Track 3
Filename C:\Documents and Settings\sam\Desktop\BT\seeds\Paolo Conte - The Best Of Paolo Conte (1987) [FLAC]\03 - Elisir.wav

Peak level 100.0 %
Track quality 100.0 %
Test CRC BA239CB5
Copy CRC BA239CB5
Copy OK

Track 4
Filename C:\Documents and Settings\sam\Desktop\BT\seeds\Paolo Conte - The Best Of Paolo Conte (1987) [FLAC]\04 - Boogie.wav

Peak level 100.0 %
Track quality 100.0 %
Test CRC 446F29F7
Copy CRC 446F29F7
Copy OK

Track 5
Filename C:\Documents and Settings\sam\Desktop\BT\seeds\Paolo Conte - The Best Of Paolo Conte (1987) [FLAC]\05 - Sparring Partner.wav

Peak level 100.0 %
Track quality 100.0 %
Test CRC EF9BB021
Copy CRC EF9BB021
Copy OK

Track 6
Filename C:\Documents and Settings\sam\Desktop\BT\seeds\Paolo Conte - The Best Of Paolo Conte (1987) [FLAC]\06 - Come Di.wav

Peak level 99.9 %
Track quality 100.0 %
Test CRC A0B3ED99
Copy CRC A0B3ED99
Copy OK

Track 7
Filename C:\Documents and Settings\sam\Desktop\BT\seeds\Paolo Conte - The Best Of Paolo Conte (1987) [FLAC]\07 - Azzurro.wav

Peak level 100.0 %
Track quality 100.0 %
Test CRC 2C7172F1
Copy CRC 2C7172F1
Copy OK

Track 8
Filename C:\Documents and Settings\sam\Desktop\BT\seeds\Paolo Conte - The Best Of Paolo Conte (1987) [FLAC]\08 - Gelato Al Limon.wav

Peak level 100.0 %
Track quality 99.9 %
Test CRC 02F41937
Copy CRC 02F41937
Copy OK

Track 9
Filename C:\Documents and Settings\sam\Desktop\BT\seeds\Paolo Conte - The Best Of Paolo Conte (1987) [FLAC]\09 - Happy Feet.wav

Peak level 100.0 %
Track quality 100.0 %
Test CRC 8B5BF680
Copy CRC 8B5BF680
Copy OK

Track 10
Filename C:\Documents and Settings\sam\Desktop\BT\seeds\Paolo Conte - The Best Of Paolo Conte (1987) [FLAC]\10 - Gli Impermeabili.wav

Peak level 100.0 %
Track quality 99.9 %
Test CRC 8F89A287
Copy CRC 8F89A287
Copy OK

Track 11
Filename C:\Documents and Settings\sam\Desktop\BT\seeds\Paolo Conte - The Best Of Paolo Conte (1987) [FLAC]\11 - Max.wav

Peak level 100.0 %
Track quality 99.9 %
Test CRC 5F6168A8
Copy CRC 5F6168A8
Copy OK

Track 12
Filename C:\Documents and Settings\sam\Desktop\BT\seeds\Paolo Conte - The Best Of Paolo Conte (1987) [FLAC]\12 - Gong-Oh.wav

Peak level 100.0 %
Track quality 99.9 %
Test CRC 50564E39
Copy CRC 50564E39
Copy OK

Track 13
Filename C:\Documents and Settings\sam\Desktop\BT\seeds\Paolo Conte - The Best Of Paolo Conte (1987) [FLAC]\13 - Colleghi Trascurati.wav

Peak level 100.0 %
Track quality 100.0 %
Test CRC 980174FC
Copy CRC 980174FC
Copy OK

Track 14
Filename C:\Documents and Settings\sam\Desktop\BT\seeds\Paolo Conte - The Best Of Paolo Conte (1987) [FLAC]\14 - Bartali.wav

Peak level 100.0 %
Track quality 100.0 %
Test CRC 5241236A
Copy CRC 5241236A
Copy OK

Track 15
Filename C:\Documents and Settings\sam\Desktop\BT\seeds\Paolo Conte - The Best Of Paolo Conte (1987) [FLAC]\15 - Alle Prese Con Una Verde Milonga.wav

Peak level 100.0 %
Track quality 100.0 %
Test CRC E71658CB
Copy CRC E71658CB
Copy OK

Track 16
Filename C:\Documents and Settings\sam\Desktop\BT\seeds\Paolo Conte - The Best Of Paolo Conte (1987) [FLAC]\16 - Dragon.wav

Peak level 99.9 %
Track quality 99.9 %
Test CRC DD1F634F
Copy CRC DD1F634F
Copy OK

Track 17
Filename C:\Documents and Settings\sam\Desktop\BT\seeds\Paolo Conte - The Best Of Paolo Conte (1987) [FLAC]\17 - Hemingway.wav

Peak level 100.0 %
Track quality 100.0 %
Test CRC EBE3B78C
Copy CRC EBE3B78C
Copy OK

Track 18
Filename C:\Documents and Settings\sam\Desktop\BT\seeds\Paolo Conte - The Best Of Paolo Conte (1987) [FLAC]\18 - Ho Ballato Di Tutto.wav

Peak level 89.1 %
Track quality 100.0 %
Test CRC 69D4CAE9
Copy CRC 69D4CAE9
Copy OK

Track 19
Filename C:\Documents and Settings\sam\Desktop\BT\seeds\Paolo Conte - The Best Of Paolo Conte (1987) [FLAC]\19 - Quadrille.wav

Peak level 100.0 %
Track quality 100.0 %
Test CRC 806F5049
Copy CRC 806F5049
Copy OK

Track 20
Filename C:\Documents and Settings\sam\Desktop\BT\seeds\Paolo Conte - The Best Of Paolo Conte (1987) [FLAC]\20 - Genova Per Noi.wav

Peak level 100.0 %
Track quality 100.0 %
Test CRC 6741976C
Copy CRC 6741976C
Copy OK

No errors occured


End of status report

All thanks go to the Original ripper (unknown)

More Music in My Blog
Follow My RSS Channel