Tags
Language
Tags

Paolo Tognon - Luigi Merci: Sei sonate per fagotto e b.c. - op. III - (2000) (Repost)

Posted By: Domestos
Paolo Tognon - Luigi Merci: Sei sonate per fagotto e b.c. - op. III - (2000) (Repost)

Paolo Tognon - Luigi Merci: Sei sonate per fagotto e b.c. - op. III - (2000)
EAC Rip | FLAC (image+.cue, log) ~ 301.71 Mb | 58:09 | Scans included
Classical | Label: Tactus (ORF053)

The family history of Luigi Merci (1695 ca. - London 1750 ca.) is somewhat uncertain. He was probably of Italian-French origins but is generally considered to be English instead. He was in the service of James Brydges, count of Caernarvon and first Duke of Chandos, in around 1720. In those years, Merci published a few sonatas for flute and basso continuo and dedicated them to his patron. In 1730 he married Ann Hampshire and moved to the Covent Garden area of London. His printed op. 3 consists of two collections of sonatas: those for recorder (the last of their kind in England, where the transverse flute was becoming increasingly predominant), and the very interesting and rare sonatas for bassoon. Merci's personality as a wind player clearly emerges in these six sonatas. Indeed, their expressive quality is remarkable. Merci's style might be defined as a marriage of the Italian school, with its felicitous melodic sense so suitable to the melancholy character of the bassoon, and the French style, abundantly represented by the refined ornaments which the composer himself carefully wrote out. Moreover, Merci pays homage to his homeland through the insertion of two lovely "Scottish airs" which exalt the rustic and rhythmic character of the bassoon.

Paolo Tognon - bassoon
Pietro Bosna - cello
Paola Frezzato - bassoon
Pietro Prosser - theorbo and guitar
Roberto Loreggian - harpsichord

Track List:
Luigi Merci (c1695-c1750)
1. Sonata I Sib b Adagio: Adagio
2. Allegro
3. Larghetto alla scozzese
4. Minuetto

5. Sonata II in Sol Maggiore: Adagio
6. Allemanda ( allegro)
7. Andantino all scozzese
8. Minuetto

9. Sonata III in Mi b Magglore: Grave
10. A tempo giusto
11. Adagio
12. Minuetto

13. Sonata IV in Sol Minore: Allemanda
14. Andantino cantabile
15. Minuetto
16. Presto, minuetto D.C.

17. Sonata V Do Minore: Allemanda
18. Andantino
19. Minuetto
20. Presto, minuetto D.C.

21. Sonata VI La Minore: Allemanda
22. Adagio
23. Tema con variazioni
24. Variatio prima
25. Variatio seconda

Girolamo Besozzi (1713-1786)
26. Sonata in Si B Maggiore: Allegro
27. Adagio
28. Presto

Paolo Tognon - Luigi Merci: Sei sonate per fagotto e b.c. - op. III - (2000) (Repost)

Exact Audio Copy V1.0 beta 3 from 29. August 2011

EAC extraction logfile from 10. July 2017, 19:09

Tognon, Bosna, Frezzato, Prosser, Loreggian / Merci - Six Sonatas for bassoon and continuo Op. 3

Used drive : hp DVD-RAM UJ8D1 Adapter: 0 ID: 0

Read mode : Secure
Utilize accurate stream : Yes
Defeat audio cache : Yes
Make use of C2 pointers : No

Read offset correction : 6
Overread into Lead-In and Lead-Out : No
Fill up missing offset samples with silence : Yes
Delete leading and trailing silent blocks : No
Null samples used in CRC calculations : Yes
Used interface : Native Win32 interface for Win NT & 2000

Used output format : User Defined Encoder
Selected bitrate : 768 kBit/s
Quality : High
Add ID3 tag : No
Command line compressor : C:\Program Files (x86)\Exact Audio Copy\FLAC\FLAC.EXE
Additional command line options : -8 -V -T "ARTIST=%artist%" -T "TITLE=%title%" -T "ALBUM=%albumtitle%" -T "DATE=%year%" -T "TRACKNUMBER=%tracknr%" -T "GENRE=%genre%" -T "PERFORMER=%albuminterpret%" -T "COMPOSER=%composer%" %haslyrics%–tag-from-file=LYRICS="%lyricsfile%"%haslyrics% -T "ALBUMARTIST=%albumartist%" -T "DISCNUMBER=%cdnumber%" -T "TOTALDISCS=%totalcds%" -T "TOTALTRACKS=%numtracks%" -T "COMMENT=%comment%" %source% -o %dest%

TOC of the extracted CD

Track | Start | Length | Start sector | End sector
––––––––––––––––––––––––––––-
1 | 0:00.00 | 3:12.50 | 0 | 14449
2 | 3:12.50 | 2:15.05 | 14450 | 24579
3 | 5:27.55 | 1:34.05 | 24580 | 31634
4 | 7:01.60 | 1:44.30 | 31635 | 39464
5 | 8:46.15 | 3:30.22 | 39465 | 55236
6 | 12:16.37 | 1:57.70 | 55237 | 64081
7 | 14:14.32 | 1:15.65 | 64082 | 69771
8 | 15:30.22 | 2:01.53 | 69772 | 78899
9 | 17:32.00 | 3:04.54 | 78900 | 92753
10 | 20:36.54 | 2:28.28 | 92754 | 103881
11 | 23:05.07 | 0:35.50 | 103882 | 106556
12 | 23:40.57 | 1:53.00 | 106557 | 115031
13 | 25:33.57 | 2:14.28 | 115032 | 125109
14 | 27:48.10 | 3:02.55 | 125110 | 138814
15 | 30:50.65 | 1:03.27 | 138815 | 143566
16 | 31:54.17 | 1:11.28 | 143567 | 148919
17 | 33:05.45 | 3:03.35 | 148920 | 162679
18 | 36:09.05 | 1:34.60 | 162680 | 169789
19 | 37:43.65 | 0:59.15 | 169790 | 174229
20 | 38:43.05 | 1:08.22 | 174230 | 179351
21 | 39:51.27 | 2:12.20 | 179352 | 189271
22 | 42:03.47 | 2:53.43 | 189272 | 202289
23 | 44:57.15 | 0:58.37 | 202290 | 206676
24 | 45:55.52 | 0:58.18 | 206677 | 211044
25 | 46:53.70 | 1:26.10 | 211045 | 217504
26 | 48:20.05 | 4:03.02 | 217505 | 235731
27 | 52:23.07 | 3:33.20 | 235732 | 251726
28 | 55:56.27 | 2:24.23 | 251727 | 262549

Range status and errors

Selected range

Filename C:\cunctator\Merci - Six Sonatas for bassoon Op.3 - Tognon.wav

Peak level 98.0 %
Extraction speed 4.7 X
Range quality 100.0 %
Test CRC 3F2D7CF5
Copy CRC 3F2D7CF5
Copy OK

No errors occurred

AccurateRip summary

Track 1 accurately ripped (confidence 1) [BE0BBC67] (AR v1)
Track 2 accurately ripped (confidence 1) [76254E1A] (AR v1)
Track 3 accurately ripped (confidence 1) [0B66E39B] (AR v1)
Track 4 accurately ripped (confidence 1) [51BEC72E] (AR v1)
Track 5 accurately ripped (confidence 1) [FE1BF38D] (AR v1)
Track 6 accurately ripped (confidence 1) [1B91DB8B] (AR v1)
Track 7 accurately ripped (confidence 1) [C129AB6C] (AR v1)
Track 8 accurately ripped (confidence 1) [8B210BA3] (AR v1)
Track 9 accurately ripped (confidence 1) [EEC469D8] (AR v1)
Track 10 accurately ripped (confidence 1) [351562C0] (AR v1)
Track 11 accurately ripped (confidence 1) [BB00EB45] (AR v1)
Track 12 accurately ripped (confidence 1) [8743C7BA] (AR v1)
Track 13 accurately ripped (confidence 1) [41E29A3C] (AR v1)
Track 14 accurately ripped (confidence 1) [4F07E31E] (AR v1)
Track 15 accurately ripped (confidence 1) [37C316A5] (AR v1)
Track 16 accurately ripped (confidence 1) [BBA668C6] (AR v1)
Track 17 accurately ripped (confidence 1) [470384E7] (AR v1)
Track 18 accurately ripped (confidence 1) [2A718155] (AR v1)
Track 19 accurately ripped (confidence 1) [125F06F0] (AR v1)
Track 20 accurately ripped (confidence 1) [72A056E9] (AR v1)
Track 21 accurately ripped (confidence 1) [A92856C3] (AR v1)
Track 22 accurately ripped (confidence 1) [DFE93AFA] (AR v1)
Track 23 accurately ripped (confidence 1) [F361B075] (AR v1)
Track 24 accurately ripped (confidence 1) [6EA0CF3F] (AR v1)
Track 25 accurately ripped (confidence 1) [875F8FEB] (AR v1)
Track 26 accurately ripped (confidence 1) [0C840218] (AR v1)
Track 27 accurately ripped (confidence 1) [4DD91FB7] (AR v1)
Track 28 accurately ripped (confidence 1) [27483926] (AR v1)

All tracks accurately ripped

End of status report

==== Log checksum 4EB67E306924F2B3182CB285218F32EB9B6053A091DBB9068255E5F648C44D60 ====

All thanks go to the Caterina Sforza

More Music in My Blog
Follow My RSS Channel