Tags
Language
Tags

Patrick Cornelius - Acadia: Way Of The Cairns (2020)

Posted By: Domestos
Patrick Cornelius - Acadia: Way Of The Cairns (2020)

Patrick Cornelius - Acadia: Way Of The Cairns (2020)
EAC Rip | FLAC (tracks+.cue, log) ~ 282.72 Mb | 49:13 | Covers
Post-Bop, Contemporary Jazz | Label: Whirlwind Recordings - WR4766

Over the course of eighteen years living in New York City, Patrick Cornelius has earned a substantial reputation as a saxophonist, composer, solo artist and educator, and created an impressive body of work comprised of nine albums as a leader, featuring some of the finest musicians from the global jazz and improvised music scene. Now for his latest release Way of the Cairns he reunites a ‘TransAtlantic Collective’ of like-minded musicians for a brand new project of original compositions.

Fourteen years ago, Cornelius and bassist (and Whirlwind label boss) Michael Janisch teamed up with Luxembourgish drummer Paul Wiltgen and virtuoso Estonian pianist Kristjan Randalu for a tour that turned into a band that turned into a recording project that delivered, in Cornelius’ own words, “some of the best musical experiences I’ve ever had”. This new music takes inspiration from his experiences of hiking with his growing family among the untamed wilderness of Maine’s Acadia National Park. The band delivers an outstanding set of first and second-take performances that combine the heat of New York’s jazz scene with the depth and subtlety of the European jazz tradition to create a set of recordings that are accessible and melodic, but as powerful and compelling as the landscapes that inspired them.

The album takes the listener on a journey through a set of inspiring scenes. ‘Way of the Cairns’ describes the ascent of Great Head Mountain, through texture and tempo changes and a strong bass/sax unison melody. ‘Star Party’ commemorates a beachside star-gazing session with a lyrical piano feature for Randalu. The insistent, subtly shifting groove and intricate melody of ’Blueberry Mountain’ evoke a sense of tumbling, childlike excitement, contrasting with the radiant, gently lilting calm of ‘Seawall Sunrise’. ‘Darkest Night’ has a feature for Janisch’s powerful, clearly articulated bass, and ‘On The Precipice’ hands the reins to Wiltgen for a thrilling drum break, both pieces articulating the ominous quality that can be revealed when travelling across the wilderness.

‘Valse Héstitante’ was written by Randalu, with a limpid clarity that reaches out of the European classical tradition, spiced with some unpredictable metric shifts, while ‘Personal Beehives’ is a very American piece of twisty swing after the tradition of Konitz and Tristano. The album closer, ‘Ten Years Later’ was written by Wiltgen: the stately, measured melody returns us to the tale of the band and their journey towards reunion.

Though Cornelius is leader and principal writer, Way of the Cairns is very much the sound of a collective - “My idea was to feature the band as the lead voice, rather than myself. There’s a definite chemistry here - not super-straight ahead but not avant-garde either - embracing the European aesthetic, but with the ability to swing hard as well - that’s the unique magic of this band.” The inspiration from Cornelius’ favourite landscapes that underlies the compositions, combined with the special rapport between the players, gives the album a powerful, highly characterful unity that makes this a stand-out release.



Track List:
01. Way of the Cairns (Cornelius) - 6:23
02. Star Party (Cornelius) - 6:56
03. Blueberry Mountain (Cornelius) - 3:39
04. Seawall Sunrise (Cornelius) - 6:44
05. Darkest Night (Cornelius) - 6:25
06. Valse Hesitante (Randalu) - 5:05
07. Personal Beehives (Cornelius) - 4:43
08. On the Precipice (Cornelius) - 4:54
09. Ten Years Later (Wiltgen) - 4:24

Patrick Cornelius - alto saxophone
Kristjan Randalu - piano
Michael Janisch - bass
Paul Wiltgen - drums

Recorded in Red Gables Studio, London on May 20, 2019.

Patrick Cornelius - Acadia: Way Of The Cairns (2020)

Exact Audio Copy V1.6 from 23. October 2020

EAC extraction logfile from 15. November 2021, 19:13

Patrick Cornelius / Acadia: Way of the Cairns

Used drive : HL-DT-STDVDRAM GP65NB60 Adapter: 1 ID: 0

Read mode : Secure
Utilize accurate stream : Yes
Defeat audio cache : Yes
Make use of C2 pointers : No

Read offset correction : 6
Overread into Lead-In and Lead-Out : No
Fill up missing offset samples with silence : Yes
Delete leading and trailing silent blocks : No
Null samples used in CRC calculations : Yes
Used interface : Native Win32 interface for Win NT & 2000
Gap handling : Appended to previous track

Used output format : User Defined Encoder
Selected bitrate : 1024 kBit/s
Quality : High
Add ID3 tag : No
Command line compressor : C:\Program Files (x86)\Exact Audio Copy\Flac\flac.exe
Additional command line options : -8 -V -T "ARTIST=%artist%" -T "TITLE=%title%" -T "ALBUM=%albumtitle%" -T "DATE=%year%" -T "TRACKNUMBER=%tracknr%" -T "GENRE=%genre%" -T "PERFORMER=%albuminterpret%" -T "COMPOSER=%composer%" -T "ALBUMARTIST=%albumartist%" -T "DISCNUMBER=%cdnumber%" -T "TOTALDISCS=%totalcds%" -T "TOTALTRACKS=%numtracks%" -T "COMMENT=%comment%" %source% -o %dest%


TOC of the extracted CD

Track | Start | Length | Start sector | End sector
––––––––––––––––––––––––––––-
1 | 0:00.00 | 6:23.19 | 0 | 28743
2 | 6:23.19 | 6:56.12 | 28744 | 59955
3 | 13:19.31 | 3:38.63 | 59956 | 76368
4 | 16:58.19 | 6:44.12 | 76369 | 106680
5 | 23:42.31 | 6:25.31 | 106681 | 135586
6 | 30:07.62 | 5:04.68 | 135587 | 158454
7 | 35:12.55 | 4:43.19 | 158455 | 179698
8 | 39:55.74 | 4:54.13 | 179699 | 201761
9 | 44:50.12 | 4:23.66 | 201762 | 221552


Track 1

Filename D:\EAC Rips\Patrick Cornelius - Acadia Way of the Cairns (2020) {WR4766} [CD FLAC]\01 - Way Of The Cairns.wav

Pre-gap length 0:00:02.00

Peak level 97.4 %
Extraction speed 1.3 X
Track quality 100.0 %
Test CRC 924283D4
Copy CRC 924283D4
Accurately ripped (confidence 1) [EAF4E641] (AR v2)
Copy OK

Track 2

Filename D:\EAC Rips\Patrick Cornelius - Acadia Way of the Cairns (2020) {WR4766} [CD FLAC]\02 - Star Party.wav

Peak level 97.4 %
Extraction speed 1.5 X
Track quality 100.0 %
Test CRC 43E5B90B
Copy CRC 43E5B90B
Accurately ripped (confidence 1) [39C01275] (AR v2)
Copy OK

Track 3

Filename D:\EAC Rips\Patrick Cornelius - Acadia Way of the Cairns (2020) {WR4766} [CD FLAC]\03 - Blueberry Mountain.wav

Peak level 97.4 %
Extraction speed 1.5 X
Track quality 100.0 %
Test CRC DFAE767B
Copy CRC DFAE767B
Accurately ripped (confidence 1) [E8D3063F] (AR v2)
Copy OK

Track 4

Filename D:\EAC Rips\Patrick Cornelius - Acadia Way of the Cairns (2020) {WR4766} [CD FLAC]\04 - Seawall Sunrise.wav

Peak level 97.3 %
Extraction speed 1.8 X
Track quality 100.0 %
Test CRC 8CB2395D
Copy CRC 8CB2395D
Accurately ripped (confidence 1) [24A3C315] (AR v2)
Copy OK

Track 5

Filename D:\EAC Rips\Patrick Cornelius - Acadia Way of the Cairns (2020) {WR4766} [CD FLAC]\05 - Darkest Night.wav

Peak level 97.4 %
Extraction speed 1.9 X
Track quality 100.0 %
Test CRC 4FF98D9C
Copy CRC 4FF98D9C
Accurately ripped (confidence 1) [529DE926] (AR v2)
Copy OK

Track 6

Filename D:\EAC Rips\Patrick Cornelius - Acadia Way of the Cairns (2020) {WR4766} [CD FLAC]\06 - Valse Hesistante.wav

Peak level 97.2 %
Extraction speed 1.8 X
Track quality 99.9 %
Test CRC E20428FB
Copy CRC E20428FB
Accurately ripped (confidence 1) [575D0D1A] (AR v2)
Copy OK

Track 7

Filename D:\EAC Rips\Patrick Cornelius - Acadia Way of the Cairns (2020) {WR4766} [CD FLAC]\07 - Personal Beehives.wav

Peak level 97.4 %
Extraction speed 1.8 X
Track quality 99.9 %
Test CRC 018BCFD8
Copy CRC 018BCFD8
Accurately ripped (confidence 1) [CF0BDEB9] (AR v2)
Copy OK

Track 8

Filename D:\EAC Rips\Patrick Cornelius - Acadia Way of the Cairns (2020) {WR4766} [CD FLAC]\08 - On The Precipice.wav

Peak level 97.4 %
Extraction speed 2.1 X
Track quality 100.0 %
Test CRC 0451BB61
Copy CRC 0451BB61
Accurately ripped (confidence 1) [212DC903] (AR v2)
Copy OK

Track 9

Filename D:\EAC Rips\Patrick Cornelius - Acadia Way of the Cairns (2020) {WR4766} [CD FLAC]\09 - Ten Years Later.wav

Peak level 97.3 %
Extraction speed 2.1 X
Track quality 100.0 %
Test CRC 8DCDD1CF
Copy CRC 8DCDD1CF
Accurately ripped (confidence 1) [685B1410] (AR v2)
Copy OK


All tracks accurately ripped

No errors occurred

End of status report

–– CUETools DB Plugin V2.1.6

[CTDB TOCID: BQlyqXdxM0iHazFHNl4_e0Mg7rg-] found
Submit result: already submitted
Track | CTDB Status
1 | (4/4) Accurately ripped
2 | (4/4) Accurately ripped
3 | (4/4) Accurately ripped
4 | (4/4) Accurately ripped
5 | (4/4) Accurately ripped
6 | (4/4) Accurately ripped
7 | (4/4) Accurately ripped
8 | (4/4) Accurately ripped
9 | (4/4) Accurately ripped


==== Log checksum D19FDB12B3C795336005E1020A7DB0BFAE839DE3B2137C4B07740E17466546C6 ====

All thanks go to the turbomandoll

More Music in My Blog
Follow My RSS Channel