Subcategories

Paul Bley - Paul Bley - EmArcy (1954) {2013 Japan Jazz The Best Series 24-bit Remaster UCCU-9739}

Posted By: ruskaval
Paul Bley - Paul Bley - EmArcy (1954) {2013 Japan Jazz The Best Series 24-bit Remaster UCCU-9739}

Paul Bley - Paul Bley - EmArcy (1954) {2013 Japan Jazz The Best Series 24-bit Remaster UCCU-9739}
EAC rip (secure mode) | FLAC (tracks)+CUE+LOG -> 179 Mb | MP3 @320 -> 99 Mb
Full Artwork @ 300 dpi (png) -> 26 Mb | 5% repair rar | 24-bit remaster
© 1954, 2013 EmArcy / Verve / Universal Japan | UCCU-9739
Jazz / Avant-Garde Jazz / Piano

Early early work by Paul Bley – years before he picked up the synthesizer, and years before he became the moody modernist he was in the 70s! The album's a relatively straight batch of tracks, but does have a touch of modernism – an early example of the sharp sounds that Bley would fully forge in alter years. The lineup is nice, too – with either Percy Heath or Peter Ind on bass, both players who clearly feel Bley's intentions – and Al Levitt on drums. Tracks are mostly standards, but they're done by Bley in a way that's fresh and sprightly – and titles include "My Heart", "Topsy", "I Want To Be Happy", "Autumn Breeze", and "My Old Flame".
Paul Bley - Paul Bley - EmArcy (1954) {2013 Japan Jazz The Best Series 24-bit Remaster UCCU-9739}


Personnel:
Paul Bley - piano
Percy Heath, Peter Ind - bass
Alan Levitt - drums

tracklist:
01 - Topsy
02 - My Heart
03 - That Old Feeling
04 - There'll Never Be Another You
05 - Autumn Breeze
06 - I Want To Be Happy
07 - My Old Flame
08 - Time On My Hands
09 - Drum One
10 - This Can't Be Love
11 - My One And Only (What Am I Gonna Do)
12 - 52nd Street Theme

Exact Audio Copy V1.0 beta 4 from 7. December 2014

EAC extraction logfile from 28. April 2015, 20:19

Paul Bley / Paul Bley - EmArcy

Used drive : TSSTcorpCDDVDW SE-208DB Adapter: 1 ID: 1

Read mode : Secure
Utilize accurate stream : Yes
Defeat audio cache : Yes
Make use of C2 pointers : No

Read offset correction : 6
Overread into Lead-In and Lead-Out : No
Fill up missing offset samples with silence : Yes
Delete leading and trailing silent blocks : No
Null samples used in CRC calculations : Yes
Used interface : Native Win32 interface for Win NT & 2000
Gap handling : Appended to previous track

Used output format : User Defined Encoder
Selected bitrate : 1024 kBit/s
Quality : High
Add ID3 tag : No
Command line compressor : C:\Program Files (x86)\FLAC Frontend\tools\flac.exe
Additional command line options : -8 -V -T "ARTIST=%artist%" -T "TITLE=%title%" -T "ALBUM=%albumtitle%" -T "DATE=%year%" -T "TRACKNUMBER=%tracknr%" -T "TOTALTRACKS=%numtracks%" -T "GENRE=%genre%" -T "ALBUMARTIST=%albumartist%" -T "ALBUM ARTIST=%albumartist%" -T "COMMENT=EAC Secure Mode, Test & Copy, AccurateRip, FLAC -8" %source%


TOC of the extracted CD

Track | Start | Length | Start sector | End sector
––––––––––––––––––––––––––––-
1 | 0:00.00 | 2:46.05 | 0 | 12454
2 | 2:46.05 | 2:43.20 | 12455 | 24699
3 | 5:29.25 | 2:41.60 | 24700 | 36834
4 | 8:11.10 | 5:50.47 | 36835 | 63131
5 | 14:01.57 | 3:13.03 | 63132 | 77609
6 | 17:14.60 | 2:22.12 | 77610 | 88271
7 | 19:36.72 | 3:30.53 | 88272 | 104074
8 | 23:07.50 | 3:34.00 | 104075 | 120124
9 | 26:41.50 | 2:24.47 | 120125 | 130971
10 | 29:06.22 | 3:12.65 | 130972 | 145436
11 | 32:19.12 | 6:47.08 | 145437 | 175969
12 | 39:06.20 | 2:49.57 | 175970 | 188701


Track 1

Filename D:\_EAC\Paul Bley - Paul Bley - EmArcy (1954) [FLAC] {2013 Japan Jazz The Best Series 24-bit Remaster}\01 - Topsy.wav

Pre-gap length 0:00:02.00

Peak level 99.9 %
Extraction speed 1.0 X
Track quality 100.0 %
Test CRC 59BD72D4
Copy CRC 59BD72D4
Accurately ripped (confidence 1) [5D0766C1] (AR v1)
Copy OK

Track 2

Filename D:\_EAC\Paul Bley - Paul Bley - EmArcy (1954) [FLAC] {2013 Japan Jazz The Best Series 24-bit Remaster}\02 - My Heart.wav

Peak level 89.9 %
Extraction speed 1.1 X
Track quality 100.0 %
Test CRC 0EBFD17E
Copy CRC 0EBFD17E
Accurately ripped (confidence 1) [C7B07C52] (AR v1)
Copy OK

Track 3

Filename D:\_EAC\Paul Bley - Paul Bley - EmArcy (1954) [FLAC] {2013 Japan Jazz The Best Series 24-bit Remaster}\03 - That Old Feeling.wav

Peak level 89.0 %
Extraction speed 1.1 X
Track quality 100.0 %
Test CRC C5F26089
Copy CRC C5F26089
Accurately ripped (confidence 1) [4E2E5AA9] (AR v1)
Copy OK

Track 4

Filename D:\_EAC\Paul Bley - Paul Bley - EmArcy (1954) [FLAC] {2013 Japan Jazz The Best Series 24-bit Remaster}\04 - There'll Never Be Another You.wav

Peak level 93.7 %
Extraction speed 1.4 X
Track quality 100.0 %
Test CRC EC1963E8
Copy CRC EC1963E8
Accurately ripped (confidence 1) [8282079E] (AR v1)
Copy OK

Track 5

Filename D:\_EAC\Paul Bley - Paul Bley - EmArcy (1954) [FLAC] {2013 Japan Jazz The Best Series 24-bit Remaster}\05 - Autumn Breeze.wav

Peak level 81.5 %
Extraction speed 1.3 X
Track quality 100.0 %
Test CRC 7A6AFF1E
Copy CRC 7A6AFF1E
Accurately ripped (confidence 1) [24663D07] (AR v1)
Copy OK

Track 6

Filename D:\_EAC\Paul Bley - Paul Bley - EmArcy (1954) [FLAC] {2013 Japan Jazz The Best Series 24-bit Remaster}\06 - I Want To Be Happy.wav

Peak level 81.4 %
Extraction speed 1.3 X
Track quality 100.0 %
Test CRC A7E91B7D
Copy CRC A7E91B7D
Accurately ripped (confidence 1) [E7BA1887] (AR v1)
Copy OK

Track 7

Filename D:\_EAC\Paul Bley - Paul Bley - EmArcy (1954) [FLAC] {2013 Japan Jazz The Best Series 24-bit Remaster}\07 - My Old Flame.wav

Peak level 87.4 %
Extraction speed 1.4 X
Track quality 100.0 %
Test CRC E5D55A9B
Copy CRC E5D55A9B
Accurately ripped (confidence 1) [B4A9B27C] (AR v1)
Copy OK

Track 8

Filename D:\_EAC\Paul Bley - Paul Bley - EmArcy (1954) [FLAC] {2013 Japan Jazz The Best Series 24-bit Remaster}\08 - Time On My Hands.wav

Peak level 76.2 %
Extraction speed 1.5 X
Track quality 100.0 %
Test CRC 3DD91907
Copy CRC 3DD91907
Accurately ripped (confidence 1) [066BD8C2] (AR v1)
Copy OK

Track 9

Filename D:\_EAC\Paul Bley - Paul Bley - EmArcy (1954) [FLAC] {2013 Japan Jazz The Best Series 24-bit Remaster}\09 - Drum One.wav

Peak level 84.0 %
Extraction speed 1.4 X
Track quality 100.0 %
Test CRC 974DC9B0
Copy CRC 974DC9B0
Accurately ripped (confidence 1) [E866A4AF] (AR v1)
Copy OK

Track 10

Filename D:\_EAC\Paul Bley - Paul Bley - EmArcy (1954) [FLAC] {2013 Japan Jazz The Best Series 24-bit Remaster}\10 - This Can't Be Love.wav

Peak level 85.6 %
Extraction speed 1.3 X
Track quality 99.9 %
Test CRC BF71326B
Copy CRC BF71326B
Accurately ripped (confidence 1) [4909E47A] (AR v1)
Copy OK

Track 11

Filename D:\_EAC\Paul Bley - Paul Bley - EmArcy (1954) [FLAC] {2013 Japan Jazz The Best Series 24-bit Remaster}\11 - My One And Only (What Am I Gonna Do).wav

Peak level 84.7 %
Extraction speed 1.8 X
Track quality 100.0 %
Test CRC 3B089D0C
Copy CRC 3B089D0C
Accurately ripped (confidence 1) [55745C5D] (AR v1)
Copy OK

Track 12

Filename D:\_EAC\Paul Bley - Paul Bley - EmArcy (1954) [FLAC] {2013 Japan Jazz The Best Series 24-bit Remaster}\12 - 52nd Street Theme.wav

Peak level 82.4 %
Extraction speed 1.6 X
Track quality 100.0 %
Test CRC 65CE73B4
Copy CRC 65CE73B4
Accurately ripped (confidence 1) [5D796838] (AR v1)
Copy OK


All tracks accurately ripped

No errors occurred

End of status report

==== Log checksum 5E7925D18118946A7639AD02C5BA1CE8C17DE855DE6C67096D9A0C675EA7ED50 ====


Paul Bley - Paul Bley - EmArcy (1954) {2013 Japan Jazz The Best Series 24-bit Remaster UCCU-9739}

Paul Bley - Paul Bley - EmArcy (1954) {2013 Japan Jazz The Best Series 24-bit Remaster UCCU-9739}


More Japan Jazz The Best Series…


===