Tags
Language
Tags

Peggy Lee - That Old Feeling, You Go to My Head (2CD) (2001)

Posted By: Domestos
Peggy Lee - That Old Feeling, You Go to My Head (2CD) (2001)

Peggy Lee - That Old Feeling, You Go to My Head (2CD) (2001)
EAC Rip | FLAC (tracks+.cue, log) ~ 225.32 Mb + 229.90 Mb | 01:50:38 | Covers
Vocal Jazz | Label: Past Perfect Jazz Line - 205422-304

Norma Deloris Egstrom (May 26, 1920 – January 21, 2002), known professionally as Peggy Lee, was an American jazz and popular music singer, songwriter, composer, and actress, in a career spanning six decades. From her beginning as a vocalist on local radio to singing with Benny Goodman's big band, she forged a sophisticated persona, evolving into a multi-faceted artist and performer. During her career, she wrote music for films, acted, and recorded conceptual record albums that combined poetry and music.

===
Wiki | Amazon | Discogs
===


CD1 - That Old Feeling {00:57:39}
01. Ain't Goin' No Place (Dexter) - 3:03
02. That Old Feeling (Brown-Fain) - 2:43
03. Waiting for the Train to Come In (Black-Skylar) - 3:07
04. I'm Glad I Waited for You (Styne-Cahn) - 2:40
05. I Don't Know Enough About You (Lee-Barbour) - 3:20
06. Somebody Loves Me (DeSylva-Donaldson-Gershwin) - 2:04
07. It's All Over Now (Skylar-Marcotte) - 3:01
08. Linger in My Arms a Little Longer, Baby (Magidson) - 3:04
09. Everything's Moving Too Fast (Lee-Barbour) - 2:59
10. It's a Good Day (Lee-Barbour) - 2:51
11. Chi-Baba, Chi-Baba (My Bambino Go to Sleep) (David-Hoffman-Livingston) - 3:02
12. Sugar (Alexander-Pinkard-Mitchell) - 2:31
13. I'll Dance at Your Wedding (Oakland-Magidson) - 3:00
14. Golden Earrings (Young-Livingston-Evans) - 2:59
15. Talkin' to Myself About You (Stordahl-Weston-Taylor) - 2:53
16. Deed I Do (Rose-Hirsch) - 3:04
17. Why Don't You Do Right (Get Me Some Money Too) (Lee) - 2:26
18. Baby, Don't Be Mad at Me (David-Freeman) - 3:01
19. Them There Eyes (Pinkard-Tracey-Tauber) - 2:57
20. Manana (Is Soon Enough for Me) (Lee-Barbour) - 2:54

CD2 - You Go to My Head {00:52:59}
01. Caramba! It's the Samba (Taylor-Wyle-Pola) - 2:45
02. All Dressed Up with a Broken Heart (Patrick-Reese-Val) - 2:31
03. Don't Smoke in Bed (Robison) - 3:09
04. Fine and Dandy (Swift-James) - 2:13
05. As Long as I'm Dreaming (Burke-Van Heusen) - 2:07
06. I Let a Song Go Out of My Heart (Ellington-Mills-Nemo-Redmond) - 2:54
07. Imagination (Burke-Van Heusen) - 2:34
08. You're Driving Me Crazy (Donaldson) - 2:24
09. Aren't You Glad You're You (Burke-Van Heusen) - 2:09
10. But Beautiful (Burke-Van Heusen) - 2:35
11. When a Woman Loves a Man (Mercer-Hanighen-Jenkins) - 2:12
12. Save Your Sorrow for Tomorrow (DeSylva-Sherman) - 1:52
13. T'ain't So, Honey, T'ain't So (Robison) - 2:25
14. I'm Glad There Is You (Madeira-Dorsey) - 3:04
15. Be Anything (But Be Mine) (Gordon) - 3:17
16. River River (Oakland-Russell) - 3:12
17. Easy Living (Robin-Rainger) - 2:45
18. I've Got You Under My Skin (Porter) - 2:30
19. Black Coffee (Webster-Burke) - 3:07
20. You Go to My Head (Coots-Gillespie) - 3:14

Peggy Lee - That Old Feeling, You Go to My Head (2CD) (2001)

Exact Audio Copy V1.3 from 2. September 2016

EAC extraction logfile from 7. June 2019, 16:41

Peggy Lee / That Old Feeling

Used drive : hp DVD-RAM GH40L Adapter: 1 ID: 0

Read mode : Secure
Utilize accurate stream : Yes
Defeat audio cache : Yes
Make use of C2 pointers : No

Read offset correction : 667
Overread into Lead-In and Lead-Out : No
Fill up missing offset samples with silence : Yes
Delete leading and trailing silent blocks : No
Null samples used in CRC calculations : Yes
Used interface : Native Win32 interface for Win NT & 2000
Gap handling : Appended to previous track

Used output format : User Defined Encoder
Selected bitrate : 768 kBit/s
Quality : High
Add ID3 tag : No
Command line compressor : C:\Program Files (x86)\Exact Audio Copy\FLAC\FLAC.EXE
Additional command line options : -8 -V -T "ARTIST=%artist%" -T "TITLE=%title%" -T "ALBUM=%albumtitle%" -T "DATE=%year%" -T "TRACKNUMBER=%tracknr%" -T "GENRE=%genre%" -T "PERFORMER=%albuminterpret%" -T "COMPOSER=%composer%" %haslyrics%–tag-from-file=LYRICS="%lyricsfile%"%haslyrics% -T "ALBUMARTIST=%albumartist%" -T "DISCNUMBER=%cdnumber%" -T "TOTALDISCS=%totalcds%" -T "TOTALTRACKS=%numtracks%" -T "COMMENT=%comment%" %source% -o %dest%


TOC of the extracted CD

Track | Start | Length | Start sector | End sector
––––––––––––––––––––––––––––-
1 | 0:00.00 | 3:03.01 | 0 | 13725
2 | 3:03.01 | 2:43.36 | 13726 | 25986
3 | 5:46.37 | 3:06.42 | 25987 | 39978
4 | 8:53.04 | 2:39.55 | 39979 | 51958
5 | 11:32.59 | 3:20.37 | 51959 | 66995
6 | 14:53.21 | 2:04.22 | 66996 | 76317
7 | 16:57.43 | 3:00.39 | 76318 | 89856
8 | 19:58.07 | 3:03.57 | 89857 | 103638
9 | 23:01.64 | 2:59.08 | 103639 | 117071
10 | 26:00.72 | 2:50.57 | 117072 | 129878
11 | 28:51.54 | 3:02.37 | 129879 | 143565
12 | 31:54.16 | 2:30.39 | 143566 | 154854
13 | 34:24.55 | 3:00.12 | 154855 | 168366
14 | 37:24.67 | 2:59.22 | 168367 | 181813
15 | 40:24.14 | 2:52.71 | 181814 | 194784
16 | 43:17.10 | 3:03.65 | 194785 | 208574
17 | 46:21.00 | 2:26.21 | 208575 | 219545
18 | 48:47.21 | 3:00.57 | 219546 | 233102
19 | 51:48.03 | 2:57.34 | 233103 | 246411
20 | 54:45.37 | 2:54.26 | 246412 | 259487


Track 1

Filename C:\Users\Public\Seeds\Peggy Lee - That Old Feeling-You Go To My Head (2001) FLAC\Disc 1 That Old Feeling\01 - Ain't Goin' No Place.wav

Pre-gap length 0:00:02.00

Peak level 98.7 %
Extraction speed 1.7 X
Track quality 100.0 %
Test CRC 3ECF8691
Copy CRC 3ECF8691
Accurately ripped (confidence 2) [3393D3F3] (AR v2)
Copy OK

Track 2

Filename C:\Users\Public\Seeds\Peggy Lee - That Old Feeling-You Go To My Head (2001) FLAC\Disc 1 That Old Feeling\02 - That Old Feeling.wav

Pre-gap length 0:00:02.00

Peak level 99.2 %
Extraction speed 1.9 X
Track quality 100.0 %
Test CRC 5A9464C5
Copy CRC 5A9464C5
Accurately ripped (confidence 2) [27134167] (AR v2)
Copy OK

Track 3

Filename C:\Users\Public\Seeds\Peggy Lee - That Old Feeling-You Go To My Head (2001) FLAC\Disc 1 That Old Feeling\03 - Waiting For The Train To Come In.wav

Pre-gap length 0:00:02.00

Peak level 98.8 %
Extraction speed 1.7 X
Track quality 99.9 %
Test CRC D2E544BC
Copy CRC D2E544BC
Accurately ripped (confidence 2) [38906A6D] (AR v2)
Copy OK

Track 4

Filename C:\Users\Public\Seeds\Peggy Lee - That Old Feeling-You Go To My Head (2001) FLAC\Disc 1 That Old Feeling\04 - I'm Glad I Waited For You.wav

Pre-gap length 0:00:02.00

Peak level 98.9 %
Extraction speed 2.1 X
Track quality 100.0 %
Test CRC EFDA9993
Copy CRC EFDA9993
Accurately ripped (confidence 2) [74BFA4E0] (AR v2)
Copy OK

Track 5

Filename C:\Users\Public\Seeds\Peggy Lee - That Old Feeling-You Go To My Head (2001) FLAC\Disc 1 That Old Feeling\05 - I Don't Know Enough About You.wav

Pre-gap length 0:00:02.00

Peak level 100.0 %
Extraction speed 1.9 X
Track quality 99.9 %
Test CRC F046E4F0
Copy CRC F046E4F0
Accurately ripped (confidence 2) [7090CA2E] (AR v2)
Copy OK

Track 6

Filename C:\Users\Public\Seeds\Peggy Lee - That Old Feeling-You Go To My Head (2001) FLAC\Disc 1 That Old Feeling\06 - Somebody Loves Me.wav

Pre-gap length 0:00:02.00

Peak level 99.6 %
Extraction speed 2.2 X
Track quality 100.0 %
Test CRC F93F23EB
Copy CRC F93F23EB
Accurately ripped (confidence 2) [DA2CB3C7] (AR v2)
Copy OK

Track 7

Filename C:\Users\Public\Seeds\Peggy Lee - That Old Feeling-You Go To My Head (2001) FLAC\Disc 1 That Old Feeling\07 - It's All Over Now.wav

Pre-gap length 0:00:02.00

Peak level 99.1 %
Extraction speed 2.4 X
Track quality 100.0 %
Test CRC 3EA69F68
Copy CRC 3EA69F68
Accurately ripped (confidence 2) [F206429E] (AR v2)
Copy OK

Track 8

Filename C:\Users\Public\Seeds\Peggy Lee - That Old Feeling-You Go To My Head (2001) FLAC\Disc 1 That Old Feeling\08 - Linger In My Arms A Little Longer, Baby.wav

Pre-gap length 0:00:02.00

Peak level 99.2 %
Extraction speed 2.6 X
Track quality 100.0 %
Test CRC FCC8F37D
Copy CRC FCC8F37D
Accurately ripped (confidence 2) [7BC14235] (AR v2)
Copy OK

Track 9

Filename C:\Users\Public\Seeds\Peggy Lee - That Old Feeling-You Go To My Head (2001) FLAC\Disc 1 That Old Feeling\09 - Everything's Moving Too Fast.wav

Pre-gap length 0:00:02.00

Peak level 100.0 %
Extraction speed 2.7 X
Track quality 100.0 %
Test CRC B7611BC9
Copy CRC B7611BC9
Accurately ripped (confidence 2) [81FFAE84] (AR v2)
Copy OK

Track 10

Filename C:\Users\Public\Seeds\Peggy Lee - That Old Feeling-You Go To My Head (2001) FLAC\Disc 1 That Old Feeling\10 - It's A Good Day.wav

Pre-gap length 0:00:02.00

Peak level 98.7 %
Extraction speed 2.7 X
Track quality 100.0 %
Test CRC 56674870
Copy CRC 56674870
Accurately ripped (confidence 2) [A1F79100] (AR v2)
Copy OK

Track 11

Filename C:\Users\Public\Seeds\Peggy Lee - That Old Feeling-You Go To My Head (2001) FLAC\Disc 1 That Old Feeling\11 - Chi-Baba, Chi-Baba (My Bamino Go To Sleep).wav

Pre-gap length 0:00:02.00

Peak level 100.0 %
Extraction speed 2.8 X
Track quality 100.0 %
Test CRC D96DA93A
Copy CRC D96DA93A
Accurately ripped (confidence 2) [6B956871] (AR v2)
Copy OK

Track 12

Filename C:\Users\Public\Seeds\Peggy Lee - That Old Feeling-You Go To My Head (2001) FLAC\Disc 1 That Old Feeling\12 - Sugar.wav

Pre-gap length 0:00:02.00

Peak level 98.1 %
Extraction speed 2.8 X
Track quality 100.0 %
Test CRC CFA73A81
Copy CRC CFA73A81
Accurately ripped (confidence 2) [D27A9E49] (AR v2)
Copy OK

Track 13

Filename C:\Users\Public\Seeds\Peggy Lee - That Old Feeling-You Go To My Head (2001) FLAC\Disc 1 That Old Feeling\13 - I'll Dance At Your Wedding.wav

Pre-gap length 0:00:02.00

Peak level 100.0 %
Extraction speed 2.9 X
Track quality 100.0 %
Test CRC 2AA19F80
Copy CRC 2AA19F80
Accurately ripped (confidence 2) [DA0EA7EC] (AR v2)
Copy OK

Track 14

Filename C:\Users\Public\Seeds\Peggy Lee - That Old Feeling-You Go To My Head (2001) FLAC\Disc 1 That Old Feeling\14 - Golden Earrings.wav

Pre-gap length 0:00:02.00

Peak level 100.0 %
Extraction speed 2.6 X
Track quality 99.9 %
Test CRC 27D5C052
Copy CRC 27D5C052
Accurately ripped (confidence 2) [E8080C1D] (AR v2)
Copy OK

Track 15

Filename C:\Users\Public\Seeds\Peggy Lee - That Old Feeling-You Go To My Head (2001) FLAC\Disc 1 That Old Feeling\15 - Talkin' To Myself About You.wav

Pre-gap length 0:00:02.00

Peak level 100.0 %
Extraction speed 2.6 X
Track quality 99.9 %
Test CRC 203314A9
Copy CRC 203314A9
Accurately ripped (confidence 2) [17034832] (AR v2)
Copy OK

Track 16

Filename C:\Users\Public\Seeds\Peggy Lee - That Old Feeling-You Go To My Head (2001) FLAC\Disc 1 That Old Feeling\16 - Deed I Do.wav

Pre-gap length 0:00:02.00

Peak level 97.9 %
Extraction speed 3.2 X
Track quality 100.0 %
Test CRC B4137744
Copy CRC B4137744
Accurately ripped (confidence 2) [BC7D9914] (AR v2)
Copy OK

Track 17

Filename C:\Users\Public\Seeds\Peggy Lee - That Old Feeling-You Go To My Head (2001) FLAC\Disc 1 That Old Feeling\17 - Why Don't You Do Right (Get Me Some Money Too).wav

Pre-gap length 0:00:02.00

Peak level 99.9 %
Extraction speed 3.1 X
Track quality 100.0 %
Test CRC 337C0CC5
Copy CRC 337C0CC5
Accurately ripped (confidence 2) [53104228] (AR v2)
Copy OK

Track 18

Filename C:\Users\Public\Seeds\Peggy Lee - That Old Feeling-You Go To My Head (2001) FLAC\Disc 1 That Old Feeling\18 - Baby, Don't Be Mad At Me.wav

Pre-gap length 0:00:02.00

Peak level 100.0 %
Extraction speed 3.4 X
Track quality 100.0 %
Test CRC 49CDB2F0
Copy CRC 49CDB2F0
Accurately ripped (confidence 2) [2B13C646] (AR v2)
Copy OK

Track 19

Filename C:\Users\Public\Seeds\Peggy Lee - That Old Feeling-You Go To My Head (2001) FLAC\Disc 1 That Old Feeling\19 - Them There Eyes.wav

Pre-gap length 0:00:02.00

Peak level 99.6 %
Extraction speed 3.5 X
Track quality 100.0 %
Test CRC C8F8826C
Copy CRC C8F8826C
Accurately ripped (confidence 2) [A16645B7] (AR v2)
Copy OK

Track 20

Filename C:\Users\Public\Seeds\Peggy Lee - That Old Feeling-You Go To My Head (2001) FLAC\Disc 1 That Old Feeling\20 - Manana (Is Soon Enough For Me).wav

Pre-gap length 0:00:02.00

Peak level 99.2 %
Extraction speed 3.5 X
Track quality 100.0 %
Test CRC 93B62CB5
Copy CRC 93B62CB5
Accurately ripped (confidence 2) [0B6EF7DE] (AR v2)
Copy OK


All tracks accurately ripped

No errors occurred

End of status report

–– CUETools DB Plugin V2.1.6

[CTDB TOCID: _vXkL_.DOr0ADymqpSWvSM4m6D4-] found
Submit result: _vXkL_.DOr0ADymqpSWvSM4m6D4- has been confirmed
Track | CTDB Status
1 | (6/6) Accurately ripped
2 | (6/6) Accurately ripped
3 | (6/6) Accurately ripped
4 | (6/6) Accurately ripped
5 | (6/6) Accurately ripped
6 | (6/6) Accurately ripped
7 | (6/6) Accurately ripped
8 | (6/6) Accurately ripped
9 | (6/6) Accurately ripped
10 | (6/6) Accurately ripped
11 | (6/6) Accurately ripped
12 | (6/6) Accurately ripped
13 | (6/6) Accurately ripped
14 | (6/6) Accurately ripped
15 | (6/6) Accurately ripped
16 | (6/6) Accurately ripped
17 | (6/6) Accurately ripped
18 | (6/6) Accurately ripped
19 | (6/6) Accurately ripped
20 | (6/6) Accurately ripped


==== Log checksum 6298720DA5077F157A7F53C3F1A8B3F46759ACF40EB5DA356E11DB92DA9896FB ====

Exact Audio Copy V1.3 from 2. September 2016

EAC extraction logfile from 7. June 2019, 17:38

Peggy Lee / You Go To My Head

Used drive : hp DVD-RAM GH40L Adapter: 1 ID: 0

Read mode : Secure
Utilize accurate stream : Yes
Defeat audio cache : Yes
Make use of C2 pointers : No

Read offset correction : 667
Overread into Lead-In and Lead-Out : No
Fill up missing offset samples with silence : Yes
Delete leading and trailing silent blocks : No
Null samples used in CRC calculations : Yes
Used interface : Native Win32 interface for Win NT & 2000
Gap handling : Appended to previous track

Used output format : User Defined Encoder
Selected bitrate : 768 kBit/s
Quality : High
Add ID3 tag : No
Command line compressor : C:\Program Files (x86)\Exact Audio Copy\FLAC\FLAC.EXE
Additional command line options : -8 -V -T "ARTIST=%artist%" -T "TITLE=%title%" -T "ALBUM=%albumtitle%" -T "DATE=%year%" -T "TRACKNUMBER=%tracknr%" -T "GENRE=%genre%" -T "PERFORMER=%albuminterpret%" -T "COMPOSER=%composer%" %haslyrics%–tag-from-file=LYRICS="%lyricsfile%"%haslyrics% -T "ALBUMARTIST=%albumartist%" -T "DISCNUMBER=%cdnumber%" -T "TOTALDISCS=%totalcds%" -T "TOTALTRACKS=%numtracks%" -T "COMMENT=%comment%" %source% -o %dest%


TOC of the extracted CD

Track | Start | Length | Start sector | End sector
––––––––––––––––––––––––––––-
1 | 0:00.00 | 2:44.46 | 0 | 12345
2 | 2:44.46 | 2:31.37 | 12346 | 23707
3 | 5:16.08 | 3:08.66 | 23708 | 37873
4 | 8:24.74 | 2:12.38 | 37874 | 47811
5 | 10:37.37 | 2:07.18 | 47812 | 57354
6 | 12:44.55 | 2:53.71 | 57355 | 70400
7 | 15:38.51 | 2:33.69 | 70401 | 81944
8 | 18:12.45 | 2:24.12 | 81945 | 92756
9 | 20:36.57 | 2:08.49 | 92757 | 102405
10 | 22:45.31 | 2:34.47 | 102406 | 114002
11 | 25:20.03 | 2:12.12 | 114003 | 123914
12 | 27:32.15 | 1:51.39 | 123915 | 132278
13 | 29:23.54 | 2:25.36 | 132279 | 143189
14 | 31:49.15 | 3:04.18 | 143190 | 157007
15 | 34:53.33 | 3:17.34 | 157008 | 171816
16 | 38:10.67 | 3:11.68 | 171817 | 186209
17 | 41:22.60 | 2:44.72 | 186210 | 198581
18 | 44:07.57 | 2:30.26 | 198582 | 209857
19 | 46:38.08 | 3:07.32 | 209858 | 223914
20 | 49:45.40 | 3:13.49 | 223915 | 238438


Track 1

Filename C:\Users\Public\Seeds\Peggy Lee - That Old Feeling-You Go To My Head (2001) FLAC\Disc 2 You Go To My Head\01 - Caramba! It's The Samba.wav

Pre-gap length 0:00:02.00

Peak level 99.4 %
Extraction speed 1.1 X
Track quality 99.8 %
Test CRC 75BE2F81
Copy CRC 75BE2F81
Accurately ripped (confidence 1) [97D718A8] (AR v2)
Copy OK

Track 2

Filename C:\Users\Public\Seeds\Peggy Lee - That Old Feeling-You Go To My Head (2001) FLAC\Disc 2 You Go To My Head\02 - All Dressed Up With A Broken Heart.wav

Pre-gap length 0:00:02.00

Peak level 99.0 %
Extraction speed 1.8 X
Track quality 100.0 %
Test CRC 91DB9AD6
Copy CRC 91DB9AD6
Accurately ripped (confidence 1) [7D681526] (AR v2)
Copy OK

Track 3

Filename C:\Users\Public\Seeds\Peggy Lee - That Old Feeling-You Go To My Head (2001) FLAC\Disc 2 You Go To My Head\03 - Don't Smoke In Bed.wav

Pre-gap length 0:00:02.00

Peak level 96.9 %
Extraction speed 1.7 X
Track quality 99.9 %
Test CRC 983EA9E3
Copy CRC 983EA9E3
Accurately ripped (confidence 1) [7D5E5D3E] (AR v2)
Copy OK

Track 4

Filename C:\Users\Public\Seeds\Peggy Lee - That Old Feeling-You Go To My Head (2001) FLAC\Disc 2 You Go To My Head\04 - Fine And Dandy.wav

Pre-gap length 0:00:02.00

Peak level 99.1 %
Extraction speed 1.9 X
Track quality 100.0 %
Test CRC CB40F30A
Copy CRC CB40F30A
Accurately ripped (confidence 1) [4920B637] (AR v2)
Copy OK

Track 5

Filename C:\Users\Public\Seeds\Peggy Lee - That Old Feeling-You Go To My Head (2001) FLAC\Disc 2 You Go To My Head\05 - As Long As I'm Dreaming.wav

Pre-gap length 0:00:02.00

Peak level 100.0 %
Extraction speed 2.0 X
Track quality 100.0 %
Test CRC B6C0FFF5
Copy CRC B6C0FFF5
Accurately ripped (confidence 1) [AA770CFB] (AR v2)
Copy OK

Track 6

Filename C:\Users\Public\Seeds\Peggy Lee - That Old Feeling-You Go To My Head (2001) FLAC\Disc 2 You Go To My Head\06 - I Let A Song Go Out Of My Heart.wav

Pre-gap length 0:00:02.00

Peak level 98.2 %
Extraction speed 1.9 X
Track quality 99.9 %
Test CRC 48EC19CA
Copy CRC 48EC19CA
Accurately ripped (confidence 1) [AE97B000] (AR v2)
Copy OK

Track 7

Filename C:\Users\Public\Seeds\Peggy Lee - That Old Feeling-You Go To My Head (2001) FLAC\Disc 2 You Go To My Head\07 - Imagination.wav

Pre-gap length 0:00:02.00

Peak level 98.8 %
Extraction speed 2.2 X
Track quality 100.0 %
Test CRC 8D75EEF9
Copy CRC 8D75EEF9
Accurately ripped (confidence 1) [BD25415A] (AR v2)
Copy OK

Track 8

Filename C:\Users\Public\Seeds\Peggy Lee - That Old Feeling-You Go To My Head (2001) FLAC\Disc 2 You Go To My Head\08 - You're Driving Me Crazy.wav

Pre-gap length 0:00:02.00

Peak level 99.2 %
Extraction speed 2.4 X
Track quality 100.0 %
Test CRC CDEF28D7
Copy CRC CDEF28D7
Accurately ripped (confidence 1) [7CA85574] (AR v2)
Copy OK

Track 9

Filename C:\Users\Public\Seeds\Peggy Lee - That Old Feeling-You Go To My Head (2001) FLAC\Disc 2 You Go To My Head\09 - Aren't You Glad You're You.wav

Pre-gap length 0:00:02.00

Peak level 100.0 %
Extraction speed 2.3 X
Track quality 100.0 %
Test CRC 1F46EB47
Copy CRC 1F46EB47
Accurately ripped (confidence 1) [05E1D292] (AR v2)
Copy OK

Track 10

Filename C:\Users\Public\Seeds\Peggy Lee - That Old Feeling-You Go To My Head (2001) FLAC\Disc 2 You Go To My Head\10 - But Beautiful.wav

Pre-gap length 0:00:02.00

Peak level 99.6 %
Extraction speed 2.5 X
Track quality 100.0 %
Test CRC 0E125D31
Copy CRC 0E125D31
Accurately ripped (confidence 1) [6B1A0952] (AR v2)
Copy OK

Track 11

Filename C:\Users\Public\Seeds\Peggy Lee - That Old Feeling-You Go To My Head (2001) FLAC\Disc 2 You Go To My Head\11 - When A Woman Loves A Man.wav

Pre-gap length 0:00:02.00

Peak level 99.6 %
Extraction speed 2.0 X
Track quality 99.9 %
Test CRC 144E4284
Copy CRC 144E4284
Accurately ripped (confidence 1) [31517632] (AR v2)
Copy OK

Track 12

Filename C:\Users\Public\Seeds\Peggy Lee - That Old Feeling-You Go To My Head (2001) FLAC\Disc 2 You Go To My Head\12 - Save Your Sorrow For Tomorrow.wav

Pre-gap length 0:00:02.00

Peak level 99.5 %
Extraction speed 1.9 X
Track quality 99.9 %
Test CRC 98061FC4
Copy CRC 98061FC4
Accurately ripped (confidence 1) [C3001A80] (AR v2)
Copy OK

Track 13

Filename C:\Users\Public\Seeds\Peggy Lee - That Old Feeling-You Go To My Head (2001) FLAC\Disc 2 You Go To My Head\13 - T'ain't So, Honey, T'ain't So.wav

Pre-gap length 0:00:02.00

Peak level 99.1 %
Extraction speed 2.8 X
Track quality 100.0 %
Test CRC B820923E
Copy CRC B820923E
Accurately ripped (confidence 1) [B565F13F] (AR v2)
Copy OK

Track 14

Filename C:\Users\Public\Seeds\Peggy Lee - That Old Feeling-You Go To My Head (2001) FLAC\Disc 2 You Go To My Head\14 - I'm Glad There Is You.wav

Pre-gap length 0:00:02.00

Peak level 100.0 %
Extraction speed 2.5 X
Track quality 99.9 %
Test CRC 94954A96
Copy CRC 94954A96
Accurately ripped (confidence 1) [3520131F] (AR v2)
Copy OK

Track 15

Filename C:\Users\Public\Seeds\Peggy Lee - That Old Feeling-You Go To My Head (2001) FLAC\Disc 2 You Go To My Head\15 - Be Anything (But Be Mine).wav

Pre-gap length 0:00:02.00

Peak level 100.0 %
Extraction speed 3.0 X
Track quality 100.0 %
Test CRC FF3EF249
Copy CRC FF3EF249
Accurately ripped (confidence 1) [4A335094] (AR v2)
Copy OK

Track 16

Filename C:\Users\Public\Seeds\Peggy Lee - That Old Feeling-You Go To My Head (2001) FLAC\Disc 2 You Go To My Head\16 - River River.wav

Pre-gap length 0:00:02.00

Peak level 98.3 %
Extraction speed 2.7 X
Track quality 99.9 %
Test CRC FCD0F930
Copy CRC FCD0F930
Accurately ripped (confidence 1) [CCA9BCD9] (AR v2)
Copy OK

Track 17

Filename C:\Users\Public\Seeds\Peggy Lee - That Old Feeling-You Go To My Head (2001) FLAC\Disc 2 You Go To My Head\17 - Easy Living.wav

Pre-gap length 0:00:02.00

Peak level 100.0 %
Extraction speed 3.0 X
Track quality 100.0 %
Test CRC 42E924F9
Copy CRC 42E924F9
Accurately ripped (confidence 1) [0F60E21C] (AR v2)
Copy OK

Track 18

Filename C:\Users\Public\Seeds\Peggy Lee - That Old Feeling-You Go To My Head (2001) FLAC\Disc 2 You Go To My Head\18 - I've Got You Under My Skin.wav

Pre-gap length 0:00:02.00

Peak level 100.0 %
Extraction speed 3.1 X
Track quality 100.0 %
Test CRC 8ADF6669
Copy CRC 8ADF6669
Accurately ripped (confidence 1) [5F0FA632] (AR v2)
Copy OK

Track 19

Filename C:\Users\Public\Seeds\Peggy Lee - That Old Feeling-You Go To My Head (2001) FLAC\Disc 2 You Go To My Head\19 - Black Coffee.wav

Pre-gap length 0:00:02.00

Peak level 98.0 %
Extraction speed 3.3 X
Track quality 100.0 %
Test CRC 2CD08470
Copy CRC 2CD08470
Accurately ripped (confidence 1) [F96D32FA] (AR v2)
Copy OK

Track 20

Filename C:\Users\Public\Seeds\Peggy Lee - That Old Feeling-You Go To My Head (2001) FLAC\Disc 2 You Go To My Head\20 - You Go To My Head.wav

Pre-gap length 0:00:02.00

Peak level 98.8 %
Extraction speed 3.5 X
Track quality 100.0 %
Test CRC 80E02341
Copy CRC 80E02341
Accurately ripped (confidence 1) [1775C5B2] (AR v2)
Copy OK


All tracks accurately ripped

No errors occurred

End of status report

–– CUETools DB Plugin V2.1.6

[CTDB TOCID: fPhKwZcutyNWAnf.hPyOO5tdPtY-] found
Submit result: fPhKwZcutyNWAnf.hPyOO5tdPtY- has been confirmed
Track | CTDB Status
1 | (6/6) Accurately ripped
2 | (6/6) Accurately ripped
3 | (6/6) Accurately ripped
4 | (6/6) Accurately ripped
5 | (6/6) Accurately ripped
6 | (6/6) Accurately ripped
7 | (6/6) Accurately ripped
8 | (6/6) Accurately ripped
9 | (6/6) Accurately ripped
10 | (6/6) Accurately ripped
11 | (6/6) Accurately ripped
12 | (6/6) Accurately ripped
13 | (6/6) Accurately ripped
14 | (6/6) Accurately ripped
15 | (6/6) Accurately ripped
16 | (6/6) Accurately ripped
17 | (6/6) Accurately ripped
18 | (6/6) Accurately ripped
19 | (6/6) Accurately ripped
20 | (6/6) Accurately ripped


==== Log checksum 4452FFBB8B179A41135044FA52F0B55BF8894B50C8B9F4E49B84E1A7ECBBB091 ====

All thanks go to the Cacophony

More Music in My Blog
Follow My RSS Channel