Tags
Language
Tags

Pete Townshend - Live > Brixton Academy '85 (2004) {2CD Set Eel Pie EPR-020}

Posted By: ruskaval
Pete Townshend - Live > Brixton Academy '85 (2004) {2CD Set Eel Pie EPR-020}

Pete Townshend - Live > Brixton Academy '85 (2004) {2CD Set Eel Pie EPR-020}
EAC rip (secure mode) | FLAC (tracks)+CUE+LOG -> 0.97 Gb | MP3 @320 -> 352 Mb | Artwork | 5% repair rar
© 1985, 2004 Eel Pie Recording Prod. | EPR017
Rock / Contemporary Rock / Art Rock / Rock & Roll / Classic Rock

Live: Brixton Academy '85 is a live album by Pete Townshend. In 2004 Townshend released the complete 1985 Brixton Academy concert, including all of the songs that were on Deep End Live! plus the David Gilmour solo classics "Love On the Air" and "Blue Light", and other songs. The album was released 16 November 2004 in the UK through Eel Pie Recording Productions Ltd.
Pete Townshend - Live > Brixton Academy '85 (2004) {2CD Set Eel Pie EPR-020}


Personnel

Backing Vocals – Billy Nicholls, Chris Staines, Coral Gordon, Gina Foster, Ian Ellis, John (Rabbit) Bundrick
Bass – Chucho Merchan
Drums – Simon Phillips
Guitar – David Gilmour, Pete Townshend
Harmonica – Peter Hope-Evans
Horns – The Kick Horns
Keyboards – John (Rabbit) Bundrick
Percussion – Jody Linscott
Vocals – David Gilmour, Pete Townshend

Recorded November 1, 1985 at the Brixton Academy, London, England

Tracklist

DISC 1

1. Mary Anne with the Shaky Hand
2. Won't Get Fooled Again
3. A Little Is Enough
4. Secondhand Love
5. That's Alright Mama
6. Behind Blue Eyes
7. The Shout
8. Harlem Shuffle
9. Barefootin'
10. After the Fire
11. Love on the Air
12. Midnight Lover
13. Blue Light
14. I Put a Spell on You
15. I'm One

DISC 2
1. Driftin'
2. Magic Bus
3. Save It for Later
4. Eyesight to the Blind
5. Walkin'
6. Stop Hurting People
7. The Sea Refuses No River
8. Boogie Stop Shuffle
9. Face the Face
10. Pinball Wizard
11. Give Blood
12. Night Train

Exact Audio Copy V1.0 beta 1 from 15. November 2010

EAC extraction logfile from 3. January 2011, 14:47

Pete Townshend / Live Brixton Academy London 02/11/1985 (CD1)

Used drive : HP DVD Writer 420n Adapter: 1 ID: 1

Read mode : Secure
Utilize accurate stream : Yes
Defeat audio cache : Yes
Make use of C2 pointers : No

Read offset correction : 48
Overread into Lead-In and Lead-Out : No
Fill up missing offset samples with silence : Yes
Delete leading and trailing silent blocks : No
Null samples used in CRC calculations : Yes
Used interface : Native Win32 interface for Win NT & 2000
Gap handling : Appended to previous track

Used output format : Internal WAV Routines
Sample format : 44.100 Hz; 16 Bit; Stereo


TOC of the extracted CD

Track | Start | Length | Start sector | End sector
––––––––––––––––––––––––––––-
1 | 0:00.00 | 2:32.30 | 0 | 11429
2 | 2:32.30 | 5:28.53 | 11430 | 36082
3 | 8:01.08 | 5:32.27 | 36083 | 61009
4 | 13:33.35 | 5:11.11 | 61010 | 84345
5 | 18:44.46 | 3:01.47 | 84346 | 97967
6 | 21:46.18 | 4:47.67 | 97968 | 119559
7 | 26:34.10 | 5:41.44 | 119560 | 145178
8 | 32:15.54 | 5:12.66 | 145179 | 168644
9 | 37:28.45 | 4:11.00 | 168645 | 187469
10 | 41:39.45 | 5:10.03 | 187470 | 210722
11 | 46:49.48 | 6:14.63 | 210723 | 238835
12 | 53:04.36 | 5:13.37 | 238836 | 262347
13 | 58:17.73 | 9:46.12 | 262348 | 306309
14 | 68:04.10 | 4:07.07 | 306310 | 324841
15 | 72:11.17 | 3:06.42 | 324842 | 338833


Track 1

Filename C:\Music\Torents\Pete Townshend - Live Brixton Academy '85\Disc 1\01 - Mary Anne With The Shaky Hand.wav

Pre-gap length 0:00:02.00

Peak level 52.4 %
Extraction speed 2.7 X
Track quality 99.9 %
Test CRC 70BD2D46
Copy CRC 70BD2D46
Accurately ripped (confidence 2) [A1415109]
Copy OK

Track 2

Filename C:\Music\Torents\Pete Townshend - Live Brixton Academy '85\Disc 1\02 - Won't Get Fooled Again.wav

Peak level 88.3 %
Extraction speed 1.1 X
Track quality 99.5 %
Test CRC 93545F66
Copy CRC 93545F66
Accurately ripped (confidence 2) [8BFFF244]
Copy OK

Track 3

Filename C:\Music\Torents\Pete Townshend - Live Brixton Academy '85\Disc 1\03 - A Little Is Enough.wav

Peak level 87.8 %
Extraction speed 4.9 X
Track quality 100.0 %
Test CRC 071EFFE7
Copy CRC 071EFFE7
Accurately ripped (confidence 2) [9C1774CC]
Copy OK

Track 4

Filename C:\Music\Torents\Pete Townshend - Live Brixton Academy '85\Disc 1\04 - Secondhand Love.wav

Peak level 86.0 %
Extraction speed 4.5 X
Track quality 99.9 %
Test CRC 594D9732
Copy CRC 594D9732
Accurately ripped (confidence 2) [C4DF9546]
Copy OK

Track 5

Filename C:\Music\Torents\Pete Townshend - Live Brixton Academy '85\Disc 1\05 - That's Alright Mama.wav

Peak level 79.3 %
Extraction speed 4.0 X
Track quality 99.9 %
Test CRC AAC03420
Copy CRC AAC03420
Accurately ripped (confidence 2) [9D8FBEF8]
Copy OK

Track 6

Filename C:\Music\Torents\Pete Townshend - Live Brixton Academy '85\Disc 1\06 - Behind Blue Eyes.wav

Peak level 86.3 %
Extraction speed 4.9 X
Track quality 99.9 %
Test CRC 86294AC6
Copy CRC 86294AC6
Accurately ripped (confidence 2) [116A198F]
Copy OK

Track 7

Filename C:\Music\Torents\Pete Townshend - Live Brixton Academy '85\Disc 1\07 - The Shout.wav

Peak level 84.2 %
Extraction speed 6.3 X
Track quality 100.0 %
Test CRC 80072752
Copy CRC 80072752
Accurately ripped (confidence 2) [804867A5]
Copy OK

Track 8

Filename C:\Music\Torents\Pete Townshend - Live Brixton Academy '85\Disc 1\08 - Harlem Shuffle.wav

Peak level 87.0 %
Extraction speed 6.6 X
Track quality 100.0 %
Test CRC A5D0EEEB
Copy CRC A5D0EEEB
Accurately ripped (confidence 2) [C4844415]
Copy OK

Track 9

Filename C:\Music\Torents\Pete Townshend - Live Brixton Academy '85\Disc 1\09 - Barefootin'.wav

Peak level 86.6 %
Extraction speed 6.6 X
Track quality 100.0 %
Test CRC 1987E16D
Copy CRC 1987E16D
Accurately ripped (confidence 2) [08ECB0DA]
Copy OK

Track 10

Filename C:\Music\Torents\Pete Townshend - Live Brixton Academy '85\Disc 1\10 - After The Fire.wav

Peak level 88.3 %
Extraction speed 7.0 X
Track quality 100.0 %
Test CRC 2B3FED71
Copy CRC 2B3FED71
Accurately ripped (confidence 2) [4B6B8BF6]
Copy OK

Track 11

Filename C:\Music\Torents\Pete Townshend - Live Brixton Academy '85\Disc 1\11 - Love On The Air.wav

Peak level 85.2 %
Extraction speed 7.4 X
Track quality 100.0 %
Test CRC 33546FB8
Copy CRC 33546FB8
Accurately ripped (confidence 2) [7AA2D3FF]
Copy OK

Track 12

Filename C:\Music\Torents\Pete Townshend - Live Brixton Academy '85\Disc 1\12 - Midnight Lover.wav

Peak level 85.3 %
Extraction speed 6.4 X
Track quality 99.9 %
Test CRC 59AFFEC4
Copy CRC 59AFFEC4
Accurately ripped (confidence 2) [1D29AC03]
Copy OK

Track 13

Filename C:\Music\Torents\Pete Townshend - Live Brixton Academy '85\Disc 1\13 - Blue Light.wav

Peak level 87.4 %
Extraction speed 8.3 X
Track quality 100.0 %
Test CRC DF46732F
Copy CRC DF46732F
Accurately ripped (confidence 2) [60C4E76E]
Copy OK

Track 14

Filename C:\Music\Torents\Pete Townshend - Live Brixton Academy '85\Disc 1\14 - I Put A Spell On You.wav

Peak level 84.3 %
Extraction speed 7.7 X
Track quality 100.0 %
Test CRC E1662D5D
Copy CRC E1662D5D
Accurately ripped (confidence 2) [E0041E28]
Copy OK

Track 15

Filename C:\Music\Torents\Pete Townshend - Live Brixton Academy '85\Disc 1\15 - I'm One.wav

Peak level 82.8 %
Extraction speed 7.6 X
Track quality 100.0 %
Test CRC 900C5E25
Copy CRC 900C5E25
Accurately ripped (confidence 2) [A73E41B6]
Copy OK


All tracks accurately ripped

No errors occurred

End of status report
Exact Audio Copy V1.0 beta 1 from 15. November 2010

EAC extraction logfile from 3. January 2011, 15:20

Unknown Artist / Unknown Title

Used drive : HP DVD Writer 420n Adapter: 1 ID: 1

Read mode : Secure
Utilize accurate stream : Yes
Defeat audio cache : Yes
Make use of C2 pointers : No

Read offset correction : 48
Overread into Lead-In and Lead-Out : No
Fill up missing offset samples with silence : Yes
Delete leading and trailing silent blocks : No
Null samples used in CRC calculations : Yes
Used interface : Native Win32 interface for Win NT & 2000
Gap handling : Appended to previous track

Used output format : Internal WAV Routines
Sample format : 44.100 Hz; 16 Bit; Stereo


TOC of the extracted CD

Track | Start | Length | Start sector | End sector
––––––––––––––––––––––––––––-
1 | 0:00.00 | 2:01.25 | 0 | 9099
2 | 2:01.25 | 5:00.51 | 9100 | 31650
3 | 7:02.01 | 5:00.74 | 31651 | 54224
4 | 12:03.00 | 3:57.33 | 54225 | 72032
5 | 16:00.33 | 5:28.14 | 72033 | 96646
6 | 21:28.47 | 5:32.49 | 96647 | 121595
7 | 27:01.21 | 6:45.26 | 121596 | 151996
8 | 33:46.47 | 8:46.29 | 151997 | 191475
9 | 42:33.01 | 7:52.20 | 191476 | 226895
10 | 50:25.21 | 4:03.68 | 226896 | 245188
11 | 54:29.14 | 7:11.51 | 245189 | 277564
12 | 61:40.65 | 7:27.12 | 277565 | 311101


Track 1

Filename C:\Music\Torents\Pete Townshend - Live Brixton Academy '85\Disc 2\01 - Driftin'.wav

Pre-gap length 0:00:02.00

Peak level 74.6 %
Extraction speed 3.1 X
Track quality 100.0 %
Test CRC 636D94AC
Copy CRC 636D94AC
Accurately ripped (confidence 2) [C9EDEECD]
Copy OK

Track 2

Filename C:\Music\Torents\Pete Townshend - Live Brixton Academy '85\Disc 2\02 - Magic Bus.wav

Peak level 84.7 %
Extraction speed 4.0 X
Track quality 100.0 %
Test CRC A32758E7
Copy CRC A32758E7
Accurately ripped (confidence 2) [36CBD092]
Copy OK

Track 3

Filename C:\Music\Torents\Pete Townshend - Live Brixton Academy '85\Disc 2\03 - Save it For Later.wav

Peak level 67.0 %
Extraction speed 4.4 X
Track quality 100.0 %
Test CRC 8B6426AC
Copy CRC 8B6426AC
Accurately ripped (confidence 2) [705025D5]
Copy OK

Track 4

Filename C:\Music\Torents\Pete Townshend - Live Brixton Academy '85\Disc 2\04 - Eyesight to the Blind.wav

Peak level 86.0 %
Extraction speed 3.8 X
Track quality 99.9 %
Test CRC 087EAF01
Copy CRC 087EAF01
Accurately ripped (confidence 2) [0A010D17]
Copy OK

Track 5

Filename C:\Music\Torents\Pete Townshend - Live Brixton Academy '85\Disc 2\05 - Walkin'.wav

Peak level 87.9 %
Extraction speed 5.2 X
Track quality 100.0 %
Test CRC 4848F188
Copy CRC 4848F188
Accurately ripped (confidence 2) [C715D168]
Copy OK

Track 6

Filename C:\Music\Torents\Pete Townshend - Live Brixton Academy '85\Disc 2\06 - Stop Hurting People.wav

Peak level 85.8 %
Extraction speed 5.6 X
Track quality 100.0 %
Test CRC 48818A9F
Copy CRC 48818A9F
Accurately ripped (confidence 2) [D31181EE]
Copy OK

Track 7

Filename C:\Music\Torents\Pete Townshend - Live Brixton Academy '85\Disc 2\07 - The Sea Refuses No River.wav

Peak level 86.6 %
Extraction speed 6.1 X
Track quality 100.0 %
Test CRC 9EDA1DC0
Copy CRC 9EDA1DC0
Accurately ripped (confidence 2) [27566076]
Copy OK

Track 8

Filename C:\Music\Torents\Pete Townshend - Live Brixton Academy '85\Disc 2\08 - Boogie Stop Shuffle.wav

Peak level 86.5 %
Extraction speed 6.0 X
Track quality 99.9 %
Test CRC 1E7FC81C
Copy CRC 1E7FC81C
Accurately ripped (confidence 2) [531B3627]
Copy OK

Track 9

Filename C:\Music\Torents\Pete Townshend - Live Brixton Academy '85\Disc 2\09 - Face the Face.wav

Peak level 87.0 %
Extraction speed 7.0 X
Track quality 100.0 %
Test CRC 048F4D49
Copy CRC 048F4D49
Accurately ripped (confidence 2) [5ECEF61E]
Copy OK

Track 10

Filename C:\Music\Torents\Pete Townshend - Live Brixton Academy '85\Disc 2\10 - Pinball Wizard.wav

Peak level 84.6 %
Extraction speed 6.8 X
Track quality 100.0 %
Test CRC C12AD2CF
Copy CRC C12AD2CF
Accurately ripped (confidence 2) [D1D077A9]
Copy OK

Track 11

Filename C:\Music\Torents\Pete Townshend - Live Brixton Academy '85\Disc 2\11 - Give Blood.wav

Peak level 86.1 %
Extraction speed 6.6 X
Track quality 99.9 %
Test CRC F46E5E4D
Copy CRC F46E5E4D
Accurately ripped (confidence 2) [B8031EBF]
Copy OK

Track 12

Filename C:\Music\Torents\Pete Townshend - Live Brixton Academy '85\Disc 2\12 - Night Train.wav

Peak level 87.8 %
Extraction speed 7.7 X
Track quality 100.0 %
Test CRC C39BCED1
Copy CRC C39BCED1
Accurately ripped (confidence 2) [56472D80]
Copy OK


All tracks accurately ripped

No errors occurred

End of status report


Pete Townshend - Live > Brixton Academy '85 (2004) {2CD Set Eel Pie EPR-020}

Pete Townshend - Live > Brixton Academy '85 (2004) {2CD Set Eel Pie EPR-020}


see more Pete Townshend…


===