Subcategories

Peter Kaukonen - Black Kangaroo (1972)

Posted By: lupus_cervarius
Peter Kaukonen - Black Kangaroo (1972)

Peter Kaukonen - Black Kangaroo
2007 CD re-release
Heavy Rock - Blues - Psychedelic | 1972 | EAC | APE+CUE+log | 3% Recovery | 335 MB | Covers | 52:17 | RS
Peter Kaukonen with Joey Covington, Terry Adams, Nick Buck, Peter Marshall, Larry Weisberg and Shelley Silverman

A legendary 1972 album!


1. Up or Down
2. Postcard
3. What We All Know and Love
4. Billy's Tune
5. Barking Dog Blues
6. Dynamo Snackbar
7. Prisoner
8. That's a Good Question
9. Solid to the Ground [bonus track]
10. Solitary Confinement [bonus track]
11. Unsatisfactory Sex [bonus track]
12. Up or Down [bonus track]
13. Kangaroo Kommercial [bonus track]

The legendary 1972 album by guitarist Peter Kaukonen, brother of Jefferson Airplane’s Jorma, originally released on the Airplane’s own label, Grunt, "Black Kangaroo" shows a diversity, a sonic density, and a stylistic complexity.
More than connections with the Airplane, the sonic Kangaroo is under the influence of Jimi Hendrix, Johnny Winter and Leslie West of Mountain.
A great album of wild and free 70's music : heavy, bluesy, psychedelic, rock!
The re-release of "Black Kangaroo" includes 5 bonus tracks that were recorded in his four-track studio in the late 70s.



Exact Audio Copy V0.99 prebeta 4 from 23. January 2008

EAC extraction logfile from 30. April 2009, 11:40

Peter Kaukonen / Black Kangaroo

Used drive : PHILIPS DVD+-RW DVD8701 Adapter: 0 ID: 0

Read mode : Secure
Utilize accurate stream : Yes
Defeat audio cache : Yes
Make use of C2 pointers : No

Read offset correction : 0
Overread into Lead-In and Lead-Out : No
Fill up missing offset samples with silence : Yes
Delete leading and trailing silent blocks : No
Null samples used in CRC calculations : No
Used interface : Installed external ASPI interface

Used output format : Monkey's Audio Lossless Encoder
Selected bitrate : Extra High Lossless Compression
Quality : High
Add ID3 tag : No
Command line compressor : C:\Program Files\Monkey's Audio\Monkey's Audio.exe


TOC of the extracted CD

Track | Start | Length | Start sector | End sector
––––––––––––––––––––––––––––-
1 | 0:00.00 | 3:50.60 | 0 | 17309
2 | 3:50.60 | 5:20.24 | 17310 | 41333
3 | 9:11.09 | 4:48.38 | 41334 | 62971
4 | 13:59.47 | 4:58.34 | 62972 | 85355
5 | 18:58.06 | 4:05.58 | 85356 | 103788
6 | 23:03.64 | 3:57.41 | 103789 | 121604
7 | 27:01.30 | 4:57.51 | 121605 | 143930
8 | 31:59.06 | 5:12.25 | 143931 | 167355
9 | 37:11.31 | 3:34.42 | 167356 | 183447
10 | 40:45.73 | 2:33.25 | 183448 | 194947
11 | 43:19.23 | 3:48.19 | 194948 | 212066
12 | 47:07.42 | 4:41.63 | 212067 | 233204
13 | 51:49.30 | 0:34.14 | 233205 | 235768


Range status and errors

Selected range

Filename C:\Documents and Settings\michel\Bureau\KAUKONEN\PeterKaukonen-BlackKangaroo72.wav

Peak level 97.3 %
Range quality 100.0 %
Copy CRC 6D445E07
Copy OK

No errors occurred

End of status report