Subcategories

Phil Woods, Gene Quill, Sahib Shihab, Hal Stein - Four Altos (1957) [Remastered 1991]

Posted By: Bezz
Phil Woods, Gene Quill, Sahib Shihab, Hal Stein - Four Altos (1957) [Remastered 1991]

Phil Woods, Gene Quill, Sahib Shihab, Hal Stein - Four Altos (1957) [Remastered 1991]
EAC rip | FLAC+CUE+LOG | Scans | 220 Mb(Incl. Recovery)
Genre ~ Bop, Cool, Hard Bop, Saxophone Jazz | Label ~ Prestige Records

Even with Phil Woods standing out, the "four altos" on this jam session all sound pretty similar. Few listeners will be able to consistently pick out which solos are by Gene Quill and which by Sahib Shihab, Hal Stein or Woods, and unfortunately there are no real liner notes (except basic information) on this budget LP. The solos (and the backup of pianist Mal Waldron, bassist Tommy Potter and drummer Louis Hayes) are generally hard-swinging and well-played, but the strong influence of Charlie Parker makes all of the altoists sound alike. ~ AllMusic
Tracklist

1. Pedal Eyes
2. Kokochee
3. No More Nights
4. Kinda Kanonic
5. Don't Blame Me
6. Staggers

EAC extraction logfile from 24. January 2008, 23:07 for CD
Phil Woods, Gene Quill, Hal Stein, Sahib Shihab / Four Altos

Used drive : HL-DT-STCDRW/DVD GCC4482 Adapter: 1 ID: 0
Read mode : Secure with NO C2, accurate stream, disable cache
Read offset correction : 6
Overread into Lead-In and Lead-Out : No

Used output format : C:\Eac\Codecs\flac.exe (User Defined Encoder)
320 kBit/s
Additional command line options : -8 -V -T "artist=%a" -T "title=%t" -T "album=%g" -T "date=%y" -T "tracknumber=%n" -T "genre=%m" -T "comment=EAC Flac 1.1.2 -8" %s

Other options :
Fill up missing offset samples with silence : Yes
Delete leading and trailing silent blocks : No
Installed external ASPI interface

Track 1
Filename C:\Documents and Settings\4altos\01 - Pedal Eyes.wav

Pre-gap length 0:00:02.00

Peak level 61.6 %
Track quality 100.0 %
Test CRC 848562AD
Copy CRC 848562AD
Copy OK

Track 2
Filename C:\Documents and Settings\4altos\02 - Kokochee.wav

Pre-gap length 0:00:03.20

Peak level 77.6 %
Track quality 100.0 %
Test CRC 0910ACE3
Copy CRC 0910ACE3
Copy OK

Track 3
Filename C:\Documents and Settings\4altos\03 - No More Nights.wav

Pre-gap length 0:00:03.60

Peak level 70.1 %
Track quality 100.0 %
Test CRC 77746B9C
Copy CRC 77746B9C
Copy OK

Track 4
Filename C:\Documents and Settings\4altos\04 - Kinda Kanonic.wav

Pre-gap length 0:00:02.44

Peak level 80.3 %
Track quality 100.0 %
Test CRC 54B38E9E
Copy CRC 54B38E9E
Copy OK

Track 5
Filename C:\Documents and Settings\4altos\05 - Don't Blame Me.wav

Pre-gap length 0:00:03.69

Peak level 51.0 %
Track quality 100.0 %
Test CRC 9B2C3CB9
Copy CRC 9B2C3CB9
Copy OK

Track 6
Filename C:\Documents and Settings\4altos\06 - Staggers.wav

Pre-gap length 0:00:04.20

Peak level 68.2 %
Track quality 100.0 %
Test CRC 4FE04CC6
Copy CRC 4FE04CC6
Copy OK

No errors occured

End of status report

Phil Woods, Gene Quill, Sahib Shihab, Hal Stein - Four Altos (1957) [Remastered 1991]

Phil Woods, Gene Quill, Sahib Shihab, Hal Stein - Four Altos (1957) [Remastered 1991]

Special thanks to weejie and fiks22!

Welcome to my blog for more wonderful music

PLEASE DO NOT PROVIDE MIRROR LINKS!