Subcategories

Phil Woods, Jackie McLean - Bird Feathers (1957) {2013 Japan Prestige New Jazz Chronicle SHM-CD HR Cutting Series UCCO-5354}

Posted By: ruskaval
Phil Woods, Jackie McLean - Bird  Feathers (1957) {2013 Japan Prestige New Jazz Chronicle SHM-CD HR Cutting Series UCCO-5354}

Phil Woods, Gene Quill, Jackie McLean, John Jenkins, Hal McKusick - Bird Feathers (1957) {2013 Japan Prestige New Jazz Chronicle SHM-CD HR Cutting Series UCCO-5354}
EAC rip (secure mode) | FLAC (tracks)+CUE+LOG -> 182 Mb | MP3 @320 -> 106 Mb
Full Artwork @ 600 dpi (png) -> 332 Mb | 5% repair rar | DSD / HR Cutting Remaster
© 1957, 2013 Prestige New Jazz / Concord / Universal Japan | UCCO-5354 | Mono | NJLP 8204
Jazz / Bop / Cool / Hard Bop / Saxophone

Reissue features the latest DSD / HR Cutting remastering and the high-fidelity SHM-CD format (compatible with standard CD player). Comes with a description. Features the original LP designs. A really great title for this classic late 50s set – as the record showcases a host of young alto players who've all come up in the generation of Charlie Parker – but who are each bringing their own sense of style to the instrument! There's hardly any "bird feathers" here – as the Charlie Parker modes are never used slavishly, but instead as a way to sprout wings and really take off in new direction – a difference that really comes through wonderfully on the tracks that feature two different altoists playing together.

Titles include Phil Woods and Gene Quill on alto on "Solar" and "Airegin"; Jackie McLean and John Jenkins on alto on "Bird Feathers"; and Hal McKusick on alto with Billy Byers on trombone and Eddie Costa on piano – on the tracks "Interim", "Don't Worry Bout Me", and "Con Alma".
Phil Woods, Jackie McLean - Bird  Feathers (1957) {2013 Japan Prestige New Jazz Chronicle SHM-CD HR Cutting Series UCCO-5354}


Personnel:
Phil Woods, alto saxophone
Gene Quill, alto saxophone
George Syran, piano
Teddy Kotick, bass
Nick Stabulas, drums

Songs:
1. Solar (Davis)
4. Airegin (Rollins)

Recorded March 29, 1957

Jackie McLean, alto saxophone
John Jenkins, alto saxophone
Wade Legge, piano
Doug Watkins, bass
Art Taylor, drums

Song:
2. Bird Feathers (Parker)

Recorded May 3, 1957

Hal McKusick, also saxophone
Billy Byers, trombone
Eddie Costa, piano
Paul Chambers, bass
Charlie Persip, drums

Songs:
3. Interim (McKusick)
5. Don't Worry 'Bout Me (Bloom/Koehler)
6. Con Alma (Gillespie)

Recorded December 27, 1957

Supervision by bob Weinstock
Engineered by Rudy Van Gelder
Recording Location: Rudy Van Gelder Studio, Hackensack, NJ


Phil Woods, Jackie McLean - Bird  Feathers (1957) {2013 Japan Prestige New Jazz Chronicle SHM-CD HR Cutting Series UCCO-5354}


tracklist:
01 - Solar
02 - Bird Feathers
03 - Interim
04 - Airegin
05 - Don't Worry 'Bout Me
06 - Con Alma

Exact Audio Copy V1.1 from 23. June 2015

EAC extraction logfile from 15. April 2016, 6:12

Phil Woods, Gene Quill, Jackie McLean, John Jenkins, Hal McKusick / Bird Feathers

Used drive : TSSTcorpCDDVDW SE-208DB Adapter: 1 ID: 0

Read mode : Secure
Utilize accurate stream : Yes
Defeat audio cache : Yes
Make use of C2 pointers : No

Read offset correction : 6
Overread into Lead-In and Lead-Out : No
Fill up missing offset samples with silence : Yes
Delete leading and trailing silent blocks : No
Null samples used in CRC calculations : Yes
Used interface : Native Win32 interface for Win NT & 2000
Gap handling : Appended to previous track

Used output format : User Defined Encoder
Selected bitrate : 1024 kBit/s
Quality : High
Add ID3 tag : No
Command line compressor : C:\Program Files (x86)\FLAC Frontend\tools\flac.exe
Additional command line options : -8 -V -T "ARTIST=%artist%" -T "TITLE=%title%" -T "ALBUM=%albumtitle%" -T "DATE=%year%" -T "TRACKNUMBER=%tracknr%" -T "TOTALTRACKS=%numtracks%" -T "GENRE=%genre%" -T "ALBUMARTIST=%albumartist%" -T "ALBUM ARTIST=%albumartist%" -T "COMMENT=EAC Secure Mode, Test & Copy, AccurateRip, FLAC -8" %source%


TOC of the extracted CD

Track | Start | Length | Start sector | End sector
––––––––––––––––––––––––––––-
1 | 0:00.00 | 5:52.40 | 0 | 26439
2 | 5:52.40 | 10:25.35 | 26440 | 73349
3 | 16:18.00 | 5:51.65 | 73350 | 99739
4 | 22:09.65 | 6:27.13 | 99740 | 128777
5 | 28:37.03 | 8:09.02 | 128778 | 165454
6 | 36:46.05 | 7:40.48 | 165455 | 200002


Track 1

Filename D:\_EAC\Phil Woods, Gene Quill, Jackie McLean, John Jenkins, Hal McKusick - Bird Feathers (1957) [FLAC] {UCCO-5354}\01 - Solar.wav

Pre-gap length 0:00:02.00

Peak level 92.5 %
Extraction speed 0.9 X
Track quality 99.9 %
Test CRC 775B7149
Copy CRC 775B7149
Accurately ripped (confidence 2) [1BE576A9] (AR v2)
Copy OK

Track 2

Filename D:\_EAC\Phil Woods, Gene Quill, Jackie McLean, John Jenkins, Hal McKusick - Bird Feathers (1957) [FLAC] {UCCO-5354}\02 - Bird Feathers.wav

Pre-gap length 0:00:02.66

Peak level 70.2 %
Extraction speed 1.2 X
Track quality 99.9 %
Test CRC 7C6FABB7
Copy CRC 7C6FABB7
Accurately ripped (confidence 2) [B5E8FCE7] (AR v2)
Copy OK

Track 3

Filename D:\_EAC\Phil Woods, Gene Quill, Jackie McLean, John Jenkins, Hal McKusick - Bird Feathers (1957) [FLAC] {UCCO-5354}\03 - Interim.wav

Pre-gap length 0:00:02.74

Peak level 70.2 %
Extraction speed 1.4 X
Track quality 100.0 %
Test CRC 4A51DD0E
Copy CRC 4A51DD0E
Accurately ripped (confidence 2) [0067D9C9] (AR v2)
Copy OK

Track 4

Filename D:\_EAC\Phil Woods, Gene Quill, Jackie McLean, John Jenkins, Hal McKusick - Bird Feathers (1957) [FLAC] {UCCO-5354}\04 - Airegin.wav

Pre-gap length 0:00:02.66

Peak level 100.0 %
Extraction speed 1.5 X
Track quality 100.0 %
Test CRC B4C2F2DE
Copy CRC B4C2F2DE
Accurately ripped (confidence 2) [87DFCF5B] (AR v2)
Copy OK

Track 5

Filename D:\_EAC\Phil Woods, Gene Quill, Jackie McLean, John Jenkins, Hal McKusick - Bird Feathers (1957) [FLAC] {UCCO-5354}\05 - Don't Worry 'Bout Me.wav

Pre-gap length 0:00:03.17

Peak level 61.9 %
Extraction speed 1.5 X
Track quality 99.9 %
Test CRC C2C670DC
Copy CRC C2C670DC
Accurately ripped (confidence 2) [28202094] (AR v2)
Copy OK

Track 6

Filename D:\_EAC\Phil Woods, Gene Quill, Jackie McLean, John Jenkins, Hal McKusick - Bird Feathers (1957) [FLAC] {UCCO-5354}\06 - Con Alma.wav

Pre-gap length 0:00:02.74

Peak level 79.1 %
Extraction speed 1.7 X
Track quality 100.0 %
Test CRC 09C6DB92
Copy CRC 09C6DB92
Accurately ripped (confidence 2) [A37EAE09] (AR v2)
Copy OK


All tracks accurately ripped

No errors occurred

End of status report

==== Log checksum D3F857F71BBD98C15806C07DFC1A808DE31DCDD1E53563344C21D64E0B8E1603 ====


Phil Woods, Jackie McLean - Bird  Feathers (1957) {2013 Japan Prestige New Jazz Chronicle SHM-CD HR Cutting Series UCCO-5354}

Phil Woods, Jackie McLean - Bird  Feathers (1957) {2013 Japan Prestige New Jazz Chronicle SHM-CD HR Cutting Series UCCO-5354}


More Japan Prestige 7000 Chronicle SHM-CD HR Cutting Series…


===