Subcategories

Phil Woods - At The Frankfurt Jazz Festival (1970) {2012 Japan Jazz Best Collection 1000 Series WPCR-27060}

Posted By: ruskaval
Phil Woods - At The Frankfurt Jazz Festival (1970) {2012 Japan Jazz Best Collection 1000 Series WPCR-27060}

Phil Woods And His European Rhythm Machine - At The Frankfurt Jazz Festival (1970) {2012 Japan Jazz Best Collection 1000 Series WPCR-27060}
EAC rip (secure mode) | FLAC (tracks)+CUE+LOG -> 357 Mb | MP3 @320 -> 123 Mb
Full Artwork @ 600 dpi (png) -> 198 Mb | 5% repair rar | 24-bit remaster
© 1970, 2012 Embryo / Warner Japan / WEA / Rhino | WPCR-27060 | Jazz Best Collection 1000 Series
Jazz / Hard Bop / Post Bop / Progressive Jazz / Saxophone

Features 24 bit remastering and comes with a mini-description. Altoist Phil Woods' European Rhythm Machine was the most adventurous group he ever led, bordering on the avant-garde at times. The 1970 version (which includes pianist Gordon Beck, bassist Henri Texier and drummer Daniel Humair) is showcased on this 1986 reissue performing two group originals, Victor Feldman's "Joshua" and "Freedom Jazz Dance."

Beck's "The Meeting" is the briefest performance at 11 minutes, while the other three selections all clock in around 13. Woods' longtime bebop fans may not be that excited by these pretty free improvisations (although the musicians were clearly listening closely to each other), but the altoist's tone remained quite recognizable. Challenging and stimulating music.
Phil Woods - At The Frankfurt Jazz Festival (1970) {2012 Japan Jazz Best Collection 1000 Series WPCR-27060}


Personnel:
Phil Woods - alto sax
Gordon Beck - piano
Henri Texier - bass
Daniel Humair - drums

tracklist:
01 - Freedom Jazz Dance
02 - Ode A Jean-Louis
03 - Josua
04 - The Meeting

Exact Audio Copy V1.1 from 23. June 2015

EAC extraction logfile from 28. July 2016, 18:53

Phil Woods And His European Rhythm Machine / At The Frankfurt Jazz Festival

Used drive : HL-DT-STDVDRAM GP50NW41 Adapter: 1 ID: 0

Read mode : Secure
Utilize accurate stream : Yes
Defeat audio cache : Yes
Make use of C2 pointers : No

Read offset correction : 6
Overread into Lead-In and Lead-Out : No
Fill up missing offset samples with silence : Yes
Delete leading and trailing silent blocks : No
Null samples used in CRC calculations : Yes
Used interface : Native Win32 interface for Win NT & 2000
Gap handling : Appended to previous track

Used output format : User Defined Encoder
Selected bitrate : 1024 kBit/s
Quality : High
Add ID3 tag : No
Command line compressor : C:\Program Files (x86)\FLAC Frontend\tools\flac.exe
Additional command line options : -8 -V -T "ARTIST=%artist%" -T "TITLE=%title%" -T "ALBUM=%albumtitle%" -T "DATE=%year%" -T "TRACKNUMBER=%tracknr%" -T "TOTALTRACKS=%numtracks%" -T "GENRE=%genre%" -T "ALBUMARTIST=%albumartist%" -T "ALBUM ARTIST=%albumartist%" -T "COMMENT=EAC Secure Mode, Test & Copy, AccurateRip, FLAC -8" %source%


TOC of the extracted CD

Track | Start | Length | Start sector | End sector
––––––––––––––––––––––––––––-
1 | 0:00.00 | 11:52.31 | 0 | 53430
2 | 11:52.31 | 14:44.25 | 53431 | 119755
3 | 26:36.56 | 13:50.21 | 119756 | 182026
4 | 40:27.02 | 11:12.26 | 182027 | 232452


Track 1

Filename D:\_EAC\Phil Woods And His European Rhythm Machine - At The Frankfurt Jazz Festival (1970) [FLAC] {WPCR-27060}\01 - Freedom Jazz Dance.wav

Pre-gap length 0:00:02.00

Peak level 100.0 %
Extraction speed 3.2 X
Track quality 100.0 %
Test CRC 66A53BB9
Copy CRC 66A53BB9
Accurately ripped (confidence 8) [69FE26DF] (AR v2)
Copy OK

Track 2

Filename D:\_EAC\Phil Woods And His European Rhythm Machine - At The Frankfurt Jazz Festival (1970) [FLAC] {WPCR-27060}\02 - Ode A Jean-Louis.wav

Peak level 100.0 %
Extraction speed 4.2 X
Track quality 100.0 %
Test CRC 5F4052CD
Copy CRC 5F4052CD
Accurately ripped (confidence 8) [08506AA2] (AR v2)
Copy OK

Track 3

Filename D:\_EAC\Phil Woods And His European Rhythm Machine - At The Frankfurt Jazz Festival (1970) [FLAC] {WPCR-27060}\03 - Josua.wav

Pre-gap length 0:00:02.25

Peak level 100.0 %
Extraction speed 4.9 X
Track quality 100.0 %
Test CRC 8B4E40B2
Copy CRC 8B4E40B2
Accurately ripped (confidence 8) [63F984B3] (AR v2)
Copy OK

Track 4

Filename D:\_EAC\Phil Woods And His European Rhythm Machine - At The Frankfurt Jazz Festival (1970) [FLAC] {WPCR-27060}\04 - The Meeting.wav

Pre-gap length 0:00:01.58

Peak level 100.0 %
Extraction speed 5.4 X
Track quality 100.0 %
Test CRC 1BE92EE1
Copy CRC 1BE92EE1
Accurately ripped (confidence 8) [F987F0B7] (AR v2)
Copy OK


All tracks accurately ripped

No errors occurred

End of status report

==== Log checksum CB48301DB80D5761A71D6063341990F2D1CA6E7CF186B186115AE8F840633484 ====


Phil Woods - At The Frankfurt Jazz Festival (1970) {2012 Japan Jazz Best Collection 1000 Series WPCR-27060}

Phil Woods - At The Frankfurt Jazz Festival (1970) {2012 Japan Jazz Best Collection 1000 Series WPCR-27060}


see more Japan Jazz Best Collection 1000 Series 24bit Remaster…


===