Tags
Language
Tags

Philip Catherine, Paulo Morello, Sven Faller - Manoir de Mes Reves (2019)

Posted By: Domestos
Philip Catherine, Paulo Morello, Sven Faller - Manoir de Mes Reves (2019)

Philip Catherine, Paulo Morello, Sven Faller - Manoir de Mes Reves (2019)
EAC Rip | FLAC (tracks+.cue, log) ~ 172.63 Mb | 47:17 | Scans included
Post-Bop, Fusion | Label: Enja Records/Yellowbird - ENJA 9768

Guitar greats Philip Catherine and Paulo Morello got to know and appreciate each other in 2010 jamming together at the Burghausen Jazz Festival. In 2017 they teamed up with bassist Sven Faller to start a real collaboration. The chemistry of this trio turned out to be just right and lead to a number of well-received concerts. After successfully continuing their tour in 2018 they decided it was time to document their efforts in a recording.

They named it after one of their favorite compositions by European jazz pioneer Django Reinhardt: ''Manoir de mes Reves''. A lot of the group's repertoire is based on material originating from Paris in the 50's and 60's - compositions, that Philip Catherine was fond of when he was a young man - like ''Les Amoureux des Bancs Publics'' by Georges Brassens. ''Pas Encore'' was composed by Henri Salvador and is based on lyrics by Boris Vian. Salvador, who briefly played in Django Reinhardt's group was a major force in French music. Reinhardt himself is represented not only by the title track but also by his composition ''Swing 39'' and the jazz standards ''Insensiblement'' and ''I'll See You in my Dreams'' that rank among his signature tunes. ''Jardin d'Hiver'' is by French jazz organ great Eddy Louiss. Also from the 60's is the famous Bossa Nova ''Recado'', that proves to be a perfect vehicle for the trio's strengths. Newer material include two songs associated with Belgian singer Maurane: ''Les Uns contre les Autres'' (written by France Gall's husband Michel Berger) which Philip played after her recent death. ''Enfant des Etoiles'' was written for Maurane by Philip's Belgian friend Evert Verhees. One of the highlights of the album is piano player Nicola Andrioli's composition ''To Philip''.



Track List:
01. Les Amoureux des Bancs Publics (Brassens) - 3:15
02. Manoir de Mes Reves (Reinhardt) - 4:49
03. To Philip (Andrioli) - 4:04
04. L'Ombrelle et le Parapluie (Salvador) - 3:14
05. Recado (Ferreira) - 6:04
06. Insensiblement (Misraki) - 4:35
07. Claudia's Delight (Morello) - 3:27
08. Jardin D'Hiver (Louiss) - 3:40
09. Les Uns Contre les Autres (Berger) - 3:47
10. Pas Encore (Salvador) - 3:28
11. Enfant des Etoiles (Verhees) - 3:25
12. I'll See You in My Dreams (Jones) - 3:29

Philip Catherine - electric guitar
Paulo Morello - electric guitar, acoustic guitar
Sven Faller - bass

Recorded at Studio Seven, Los Angeles, CA in July 2018.

Philip Catherine, Paulo Morello, Sven Faller - Manoir de Mes Reves (2019)

Exact Audio Copy V1.3 from 2. September 2016

EAC extraction logfile from 20. July 2020, 10:08

Philip Catherine & Paulo Morello / Manoir De Mes Rêves

Used drive : PLEXTOR PX-891SAF Adapter: 1 ID: 0

Read mode : Secure
Utilize accurate stream : Yes
Defeat audio cache : Yes
Make use of C2 pointers : No

Read offset correction : 6
Overread into Lead-In and Lead-Out : No
Fill up missing offset samples with silence : Yes
Delete leading and trailing silent blocks : No
Null samples used in CRC calculations : Yes
Used interface : Native Win32 interface for Win NT & 2000
Gap handling : Appended to previous track

Used output format : User Defined Encoder
Selected bitrate : 1024 kBit/s
Quality : High
Add ID3 tag : No
Command line compressor : C:\Program Files (x86)\Exact Audio Copy\Flac\flac.exe
Additional command line options : -8 -V -T "ARTIST=%artist%" -T "TITLE=%title%" -T "ALBUM=%albumtitle%" -T "DATE=%year%" -T "TRACKNUMBER=%tracknr%" -T "GENRE=%genre%" -T "PERFORMER=%albuminterpret%" -T "COMPOSER=%composer%" %haslyrics%–tag-from-file=LYRICS="%lyricsfile%"%haslyrics% -T "ALBUMARTIST=%albumartist%" -T "DISCNUMBER=%cdnumber%" -T "TOTALDISCS=%totalcds%" -T "TOTALTRACKS=%numtracks%" -T "COMMENT=%comment%" %source% -o %dest%


TOC of the extracted CD

Track | Start | Length | Start sector | End sector
––––––––––––––––––––––––––––-
1 | 0:00.00 | 3:15.00 | 0 | 14624
2 | 3:15.00 | 4:49.18 | 14625 | 36317
3 | 8:04.18 | 4:04.14 | 36318 | 54631
4 | 12:08.32 | 3:13.60 | 54632 | 69166
5 | 15:22.17 | 6:03.49 | 69167 | 96440
6 | 21:25.66 | 4:34.69 | 96441 | 117059
7 | 26:00.60 | 3:27.24 | 117060 | 132608
8 | 29:28.09 | 3:40.24 | 132609 | 149132
9 | 33:08.33 | 3:47.06 | 149133 | 166163
10 | 36:55.39 | 3:28.03 | 166164 | 181766
11 | 40:23.42 | 3:24.54 | 181767 | 197120
12 | 43:48.21 | 3:28.45 | 197121 | 212765


Track 1

Filename D:\#EAC new\#wav+flac\#new\Philip Catherine & Paulo Morello - Manoir De Mes Rêves\01. Philip Catherine & Paulo Morello - Les Amoureux Des Bancs Publics.wav

Pre-gap length 0:00:02.00

Peak level 98.8 %
Extraction speed 4.8 X
Track quality 100.0 %
Test CRC 0D808F16
Copy CRC 0D808F16
Accurately ripped (confidence 6) [E38A61C3] (AR v2)
Copy OK

Track 2

Filename D:\#EAC new\#wav+flac\#new\Philip Catherine & Paulo Morello - Manoir De Mes Rêves\02. Philip Catherine & Paulo Morello - Manoir De Mes Rêves.wav

Pre-gap length 0:00:03.82

Peak level 98.8 %
Extraction speed 5.6 X
Track quality 100.0 %
Test CRC 94B3C2A4
Copy CRC 94B3C2A4
Accurately ripped (confidence 6) [11D475DE] (AR v2)
Copy OK

Track 3

Filename D:\#EAC new\#wav+flac\#new\Philip Catherine & Paulo Morello - Manoir De Mes Rêves\03. Philip Catherine & Paulo Morello - To Philip.wav

Pre-gap length 0:00:03.72

Peak level 98.8 %
Extraction speed 6.0 X
Track quality 100.0 %
Test CRC 40B9250B
Copy CRC 40B9250B
Accurately ripped (confidence 6) [F6E6DC53] (AR v2)
Copy OK

Track 4

Filename D:\#EAC new\#wav+flac\#new\Philip Catherine & Paulo Morello - Manoir De Mes Rêves\04. Philip Catherine & Paulo Morello - L'ombrelle Et Le Parapluie.wav

Pre-gap length 0:00:03.48

Peak level 98.8 %
Extraction speed 6.1 X
Track quality 100.0 %
Test CRC 2F077B50
Copy CRC 2F077B50
Accurately ripped (confidence 6) [74833533] (AR v2)
Copy OK

Track 5

Filename D:\#EAC new\#wav+flac\#new\Philip Catherine & Paulo Morello - Manoir De Mes Rêves\05. Philip Catherine & Paulo Morello - Recado.wav

Pre-gap length 0:00:03.17

Peak level 98.8 %
Extraction speed 7.1 X
Track quality 100.0 %
Test CRC 926A8D5A
Copy CRC 926A8D5A
Accurately ripped (confidence 6) [D6F9B1F3] (AR v2)
Copy OK

Track 6

Filename D:\#EAC new\#wav+flac\#new\Philip Catherine & Paulo Morello - Manoir De Mes Rêves\06. Philip Catherine & Paulo Morello - Insensiblement.wav

Pre-gap length 0:00:02.77

Peak level 98.8 %
Extraction speed 7.3 X
Track quality 100.0 %
Test CRC 047B063A
Copy CRC 047B063A
Accurately ripped (confidence 6) [054AE3A4] (AR v2)
Copy OK

Track 7

Filename D:\#EAC new\#wav+flac\#new\Philip Catherine & Paulo Morello - Manoir De Mes Rêves\07. Philip Catherine & Paulo Morello - Claudia's Delight.wav

Pre-gap length 0:00:03.50

Peak level 98.8 %
Extraction speed 7.4 X
Track quality 100.0 %
Test CRC 014FED82
Copy CRC 014FED82
Accurately ripped (confidence 6) [B0AFD71C] (AR v2)
Copy OK

Track 8

Filename D:\#EAC new\#wav+flac\#new\Philip Catherine & Paulo Morello - Manoir De Mes Rêves\08. Philip Catherine & Paulo Morello - Jardin D'Hiver.wav

Pre-gap length 0:00:01.32

Peak level 98.8 %
Extraction speed 7.7 X
Track quality 100.0 %
Test CRC D1BF97A8
Copy CRC D1BF97A8
Accurately ripped (confidence 6) [5DFC22DA] (AR v2)
Copy OK

Track 9

Filename D:\#EAC new\#wav+flac\#new\Philip Catherine & Paulo Morello - Manoir De Mes Rêves\09. Philip Catherine & Paulo Morello - Les Uns Contre Les Autres.wav

Pre-gap length 0:00:03.96

Peak level 98.8 %
Extraction speed 6.7 X
Track quality 99.9 %
Test CRC 2DCDB84D
Copy CRC 2DCDB84D
Accurately ripped (confidence 6) [7EF9C801] (AR v2)
Copy OK

Track 10

Filename D:\#EAC new\#wav+flac\#new\Philip Catherine & Paulo Morello - Manoir De Mes Rêves\10. Philip Catherine & Paulo Morello - Pas Encore.wav

Pre-gap length 0:00:05.42

Peak level 98.8 %
Extraction speed 8.2 X
Track quality 100.0 %
Test CRC 6306D88F
Copy CRC 6306D88F
Accurately ripped (confidence 6) [37F4508A] (AR v2)
Copy OK

Track 11

Filename D:\#EAC new\#wav+flac\#new\Philip Catherine & Paulo Morello - Manoir De Mes Rêves\11. Philip Catherine & Paulo Morello - Enfant Des Etoiles.wav

Pre-gap length 0:00:03.17

Peak level 98.8 %
Extraction speed 8.4 X
Track quality 100.0 %
Test CRC F8233988
Copy CRC F8233988
Accurately ripped (confidence 6) [D6BE4564] (AR v2)
Copy OK

Track 12

Filename D:\#EAC new\#wav+flac\#new\Philip Catherine & Paulo Morello - Manoir De Mes Rêves\12. Philip Catherine & Paulo Morello - I'll See You In My Dreams.wav

Pre-gap length 0:00:03.38

Peak level 98.9 %
Extraction speed 8.6 X
Track quality 100.0 %
Test CRC F91AB199
Copy CRC F91AB199
Accurately ripped (confidence 6) [36827B24] (AR v2)
Copy OK


All tracks accurately ripped

No errors occurred

End of status report

–– CUETools DB Plugin V2.1.6

[CTDB TOCID: 0w4kzWDvAu7IzTpfv0mNCwXNwk8-] found
Submit result: 0w4kzWDvAu7IzTpfv0mNCwXNwk8- has been confirmed
Track | CTDB Status
1 | (28/28) Accurately ripped
2 | (28/28) Accurately ripped
3 | (28/28) Accurately ripped
4 | (28/28) Accurately ripped
5 | (28/28) Accurately ripped
6 | (28/28) Accurately ripped
7 | (28/28) Accurately ripped
8 | (28/28) Accurately ripped
9 | (28/28) Accurately ripped
10 | (28/28) Accurately ripped
11 | (28/28) Accurately ripped
12 | (28/28) Accurately ripped


==== Log checksum 88F4BDCE8395F990BAABE6FA2FB3BC5701A7109E8BD8A59B5776D034F5F94A20 ====

All thanks go to the redacted

More Music in My Blog
Follow My RSS Channel