Tags
Language
Tags
June 2024
Su Mo Tu We Th Fr Sa
26 27 28 29 30 31 1
2 3 4 5 6 7 8
9 10 11 12 13 14 15
16 17 18 19 20 21 22
23 24 25 26 27 28 29
30 1 2 3 4 5 6

Pierre-Jean Croset - Harmoniques du temps - Overtones Of All Times (1986) {Ocora C 558661 HM90}

Posted By: ruskaval
Pierre-Jean Croset - Harmoniques du temps - Overtones Of All Times (1986) {Ocora C 558661 HM90}

Pierre-Jean Croset - Harmoniques du temps - Overtones Of All Times (1986) {Ocora C 558661 HM90}
XLD rip (secure mode) | FLAC (tracks)+CUE+LOG -> 205 Mb | MP3 @320 -> 144 Mb
Full Artwork @ 600 dpi (jpg) -> 33 Mb | 5% repair rar
© 1986 Ocora / Harmonia Mundi | C 558661 / HM90
Classical / Contemporary Classical / Experimental / Ambient / Instrumental / Lyre Harmonique

The lyre harmonique (harmonic lyre) is an instrument invented by Pierre Jean Croset. As a storyteller, the composer Pierre Jean Croset will weave the motives of music on the plot of time. It will create an "invisible" duality of time counted and the accounting time that it will be used without you realizing it: you will forget the music as it will be created and you will discover it differently from one time to the next to his attentive listening..Pierre jean Croset tells you a story, listen there!
Pierre-Jean Croset is an adventurer at core. He dedicated his life to study Cage’s concept “music of the spheres” and musical instruments and traditions all over the globe. He started composing pieces on a self-built 18 string lyre that are free floating and spiritual, exploring the universal overtones of just intonation improvisation. Somehow, Croset got forgotten by musical history.
Pierre-Jean Croset - Harmoniques du temps - Overtones Of All Times (1986) {Ocora C 558661 HM90}


Musicians

Pierre Jean Croset - lyre harmonique (harmonic lyre)
The 18-String Harmonic Lyre was developed by Pierre Jean Croset.

Recorded digitally 24th & 25th February 1986 at Studio 103, Radio France.


Tracklist
1a – Présence
1b – Le Réceptif
1c – Danse Au-Delà D'Un Rêve
1d – Danse D'Une Lune Oubliée
1e – Transformation
1f – Le Réceptif
1g – Le Créatif
2a – Danse De La Mer Douce
2b – Danse Des Dunes
2c – Danse Du Vent
2d – Danse Du Temps Qui Passe
3. Danse Des Couleurs

X Lossless Decoder version 20170729 (150.3)

XLD extraction logfile from 2018-08-27 16:02:38 -0700

Pierre-Jean Croset / Harmoniques du temps

Used drive : HL-DT-ST BD-RE WH16NS40 (revision 1.02)
Media type : Pressed CD

Ripper mode : XLD Secure Ripper
Disable audio cache : OK for the drive with a cache less than 1375KiB
Make use of C2 pointers : NO
Read offset correction : 6
Max retry count : 100
Gap status : Analyzed, Appended (except HTOA)

TOC of the extracted CD
Track | Start | Length | Start sector | End sector
––––––––––––––––––––––––––––-
1 | 00:00:33 | 19:59:65 | 33 | 90022
2 | 20:00:23 | 31:59:15 | 90023 | 233962
3 | 51:59:38 | 07:55:52 | 233963 | 269639

AccurateRip Summary (DiscID: 00090efb-001dea50-0e0e0b03)
Track 01 : OK (v2, confidence 5/5)
Track 02 : OK (v2, confidence 6/6)
Track 03 : OK (v2, confidence 5/5)
->All tracks accurately ripped.

All Tracks
Album gain : -0.10 dB
Peak : 1.000000
Statistics
Read error : 0
Jitter error (maybe fixed) : 0
Retry sector count : 0
Damaged sector count : 0

Track 01
Filename : /Volumes/xld/Pierre-Jean Croset - 1986 - Harmoniques du temps [FLAC]/01 - Danse pour une paix intérieure.flac
Pre-gap length : 00:02:33

Track gain : -0.10 dB
Peak : 1.000000
CRC32 hash (test run) : 8373E648
CRC32 hash : 8373E648
CRC32 hash (skip zero) : DF5497CF
AccurateRip v1 signature : 078D8CE9
AccurateRip v2 signature : 408E58F8
->Accurately ripped (v2, confidence 5/5)
Statistics
Read error : 0
Jitter error (maybe fixed) : 0
Retry sector count : 0
Damaged sector count : 0

Track 02
Filename : /Volumes/xld/Pierre-Jean Croset - 1986 - Harmoniques du temps [FLAC]/02 - Harmoniques du temps.flac
Pre-gap length : 00:05:48

Track gain : 0.02 dB
Peak : 1.000000
CRC32 hash (test run) : 336D2050
CRC32 hash : 336D2050
CRC32 hash (skip zero) : 0653FFA4
AccurateRip v1 signature : 2004FD90
AccurateRip v2 signature : 159219AA
->Accurately ripped (v2, confidence 6/6)
Statistics
Read error : 0
Jitter error (maybe fixed) : 0
Retry sector count : 0
Damaged sector count : 0

Track 03
Filename : /Volumes/xld/Pierre-Jean Croset - 1986 - Harmoniques du temps [FLAC]/03 - Danse des couleurs.flac
Pre-gap length : 00:04:38

Track gain : -0.33 dB
Peak : 0.872101
CRC32 hash (test run) : B392DA37
CRC32 hash : B392DA37
CRC32 hash (skip zero) : 276C49D2
AccurateRip v1 signature : A5FAF76B
AccurateRip v2 signature : 97A2F697
->Accurately ripped (v2, confidence 5/5)
Statistics
Read error : 0
Jitter error (maybe fixed) : 0
Retry sector count : 0
Damaged sector count : 0

No errors occurred

End of status report

––-BEGIN XLD SIGNATURE––-
4az8OYOd9xAfTiNIn0mNNZw5xheiUVLLoIPfTXm0vMznNYn6EfFAPUGih7ezBxwXGCB9HOLTSumK4DOQpx5pfOe01FMvZdu0LAIjAQG
––-END XLD SIGNATURE––-


Pierre-Jean Croset - Harmoniques du temps - Overtones Of All Times (1986) {Ocora C 558661 HM90}

Pierre-Jean Croset - Harmoniques du temps - Overtones Of All Times (1986) {Ocora C 558661 HM90}



===