Subcategories

Porcupine Tree - Stars Die: The Delerium Years 1991-1997 (2002/2017) [2016 Steven Wilson Remaster]

Posted By: delpotro
Porcupine Tree - Stars Die: The Delerium Years 1991-1997 (2002/2017) [2016 Steven Wilson Remaster]

Porcupine Tree - Stars Die: The Delerium Years 1991-1997 (2002/2017) [2016 Steven Wilson Remaster]
EAC Rip | FLAC (tracks+log+.cue) | Scans included | 02:26:24 | 871 Mb
Progressive Rock | Label: Kscope Records

Excellent introduction to the early days of Steven Wilson and his seminal band Porcupine Tree, with a thoughtful collection of album tracks, b-sides and rarities curated by Wilson himself, with the same attention to detail that we’ve come to expect from his flourishing solo career.

The low down:

With musician and producer Steven Wilson shortly about to announce details of his next solo project, I thought it would be interesting to take a trip back to an earlier point in his trajectory charting his beginnings as a full-time musician, and the evolution of Porcupine Tree from bedroom studio project to fully-fledged four piece band.

Interestingly, it’s almost as if his music development has come full circle, as Porcupine Tree started out as a solo project under which SW created and released his music, with each band member being brought on board to help him to realise his developing music and then Porcupine Tree finally becoming a group in the true sense so that the music could be played live.

The first few albums were pretty much Wilson acting as composer, arranger and conductor, with the other members then playing their parts as directed. An interesting parallel with his present solo career where he calls the shots and hires the musicians to play what he’s written – the only difference being that his little black book of contacts is probably a lot bigger these days!

Stars Die – The Delerium Years came out in 2002 as Porcupine Tree were on the cusp of a new record deal and wider appreciation, and was designed as way for new fans to catch up on the group’s early years. The two disc set was compiled and curated by SW himself, and he took care to include not just the more obvious crowd-pleasers like Radioactive Toy or Up The Downstair, but also b-sides from deleted singles, studio out-takes, alternative versions and a couple of previously unreleased tracks.

That way, existing fans would also have ample reason to justify shelling out for this set. Given the limited budget that the Delerium label worked with, singles were often limited pressings and quickly became sought after, especially if the b-sides didn’t make in onto the albums that followed.

SW oversaw the mixing and sequencing of the collection, and contributed heavily to the extensive sleeve notes, with some of his most detailed and frank comments to help the listener understand the background to the music’s development of this period. The other three members also got a fair shout and contributed equally candid insights to the sleeve notes, so you get a nicely rounded view of the band’s early history as told by themselves.

Interestingly, each individual’s views compliment those of their bandmates, and it becomes evident that by the time of the Signify album, Porcupine Tree had evolved into a fully integrated band with everyone contributing and being on the same page.

If you’re already familiar with SW’s four solo albums, or Porcupine Tree’s latter albums which were more metal-tinged, then the material on Stars Die may seem like “life, but not as we know it”. When SW started out down the PT path he was heavily influenced by psychedelia and ambient rock, rather than the eclectic prog rock with which he tends to be associated with these days. Less King Crimson, Yes and Jethro Tull, and more Aphex Twin, Ash Ra Tempel and The Orb.

As SW himself says in the sleevenotes “People tend to forget that when Porcupine Tree first started they were perceived to be one of those way-out wacky psychedelic space rock bands like Ozric Tentacles”.

The Ozrics and Porcupine Tree certainly shared a common DNA in the early days, building their reputation through selling cassettes by the bucketload, fiercely independent in outlook and at one point even playing gigs together. Of course, PT’s music evolved and mutated into something different, while the Ozrics continued on their interplanetary journey and are still out there…….somewhere…..

They also shared a common musical strand – groove! Colin Edwin’s bass influences were jazz and blues, so while the music might take you to the outer limits, you could dance your way there. The epic Voyage 34 was SW’s answer to the 40 minute Blue Room by The Orb, and had it been included in the running order of Up The Downstair, as was the original plan, the over-riding vibe of that album would have been one of ambient dance rather than the spacey rock, and could have opened up a totally different audience to PT via the rave culture that was in full vibrancy at that point.

Of course, SW being SW, he took his music into a different direction again, and The Sky Moves Sideways turned out to be a full-blown Floydian opus that put the band “firmly in the progressive rock camp”. As a result, it reached a wider audience, including Marillion, who offered the band a support slot on tour. (SW subsequently returned the compliment by helping out on mixing duties for the Marillion.com album.) It’s still a really popular album, and I don’t think the Floydian tag does it any harm – having been listening heavily to the Floyd’s Early Years box set this week, The Sky Moves Sideways comes across as both respectful and yet still original in its approach.

But the prog tag was clearly something that irked SW because in the press interviews that followed he went out of his way to decry the label, and perhaps the next album Signify was a reaction to this, with its less-is-more approach. The songs are shorter and more focussed, the lyrics turn away from starcapes and moods towards feelings and relevance, and harmony vocals bring added beauty, with drummer Chris Maitland adding his voice to Wilson’s.

The music finally sounds like the result of four musicians locked into each other’s wavelengths and creating music as a single entity.

Signify is probably my favourite of all Porcupine Tree’s albums, with some of their strongest songs, and a terrific sound mix. There’s a tangible vibe that pervades through the whole album, gently letting go the spacey ambience of what’s gone before and slowly introducing the new melancholic feel that would become increasingly prominent on the albums that followed.

By the time the next studio album, Stupid Dream, emerged the band would be on a different label and pursuing a pop-refined version of the music begun on Signify. The Delerium days were over, but they played such an important part in setting Steven Wilson on the path to where he’s now arrived, and the music from back then is still a part of his solo chemistry. (On the Raven tour he resurrected Radioactive Toy as an encore.)

If you’re at all curious to check out Steven Wilson’s earlier output then this compilation is a good place to start, including some of the best stuff, but also taking you off the beaten track on occasion.

And here’s a closing thought to ponder – in the sleeve notes (written 15 years ago) Wilson notes how Andy Partridge’s Dukes Of The Stratosphere project was such a huge influence on his music when he was starting out. Given that Wilson and Partridge have been collaborating on the music for Wilson’s forthcoming album, could some of the opening tracks on Stars Die hold the clues to how Wilson’s next album might sound?
Tracklist:
CD1
01. Radioactive Toy (10:09)
02. Nine Cats (03:52)
03. And The Swallows Dance Above The Sun (04:06)
04. Nostalgia Factory (07:34)
05. Voyage 34 - phase one (12:55)
06. Synesthesia - extended version (07:54)
07. Phantoms (03:15)
08. Up The Downstair (10:09)
09. Fadeaway (06:16)
10. Rainy Taxi (06:51)

CD2
01. Stars Die (05:07)
02. The Sky Moves Sideways - Phase One (18:38)
03. Men Of Wood (03:35)
04. Waiting (04:27)
05. The Sound Of No-One Listening (2001 Remix) (08:14)
06. Colourflow In Mind (03:49)
07. Fuse The Sky (04:33)
08. Signify II (06:04)
09. Every Home Is Wired (05:15)
10. Sever (05:31)
11. Dark Matter (08:13)

Exact Audio Copy V1.3 from 2. September 2016

EAC extraction logfile from 27. April 2017, 15:20

Porcupine Tree / Stars Die - The Delerium Years 1991-1997 (Disc One)

Used drive : HL-DT-STBD-RE WH16NS40 Adapter: 1 ID: 0

Read mode : Secure
Utilize accurate stream : Yes
Defeat audio cache : Yes
Make use of C2 pointers : No

Read offset correction : 6
Overread into Lead-In and Lead-Out : No
Fill up missing offset samples with silence : Yes
Delete leading and trailing silent blocks : No
Null samples used in CRC calculations : Yes
Used interface : Native Win32 interface for Win NT & 2000
Gap handling : Appended to previous track

Used output format : User Defined Encoder
Selected bitrate : 1024 kBit/s
Quality : High
Add ID3 tag : No
Command line compressor : C:\My Downloads\FLAC Codec for EAC\flac-1.3.2-win\win64\flac.exe
Additional command line options : -8 -V -T "ARTIST=%artist%" -T "TITLE=%title%" -T "ALBUM=%albumtitle%" -T "DATE=%year%" -T "TRACKNUMBER=%tracknr%" -T "GENRE=%genre%" -T "PERFORMER=%albuminterpret%" -T "COMPOSER=%composer%" %haslyrics%–tag-from-file=LYRICS="%lyricsfile%"%haslyrics% -T "ALBUMARTIST=%albumartist%" -T "DISCNUMBER=%cdnumber%" -T "TOTALDISCS=%totalcds%" -T "TOTALTRACKS=%numtracks%" -T "COMMENT=%comment%" %source% -o %dest%


TOC of the extracted CD

Track | Start | Length | Start sector | End sector
––––––––––––––––––––––––––––-
1 | 0:00.00 | 10:09.03 | 0 | 45677
2 | 10:09.03 | 3:51.64 | 45678 | 63066
3 | 14:00.67 | 4:05.48 | 63067 | 81489
4 | 18:06.40 | 7:34.14 | 81490 | 115553
5 | 25:40.54 | 12:54.68 | 115554 | 173671
6 | 38:35.47 | 7:53.65 | 173672 | 209211
7 | 46:29.37 | 3:14.62 | 209212 | 223823
8 | 49:44.24 | 10:09.05 | 223824 | 269503
9 | 59:53.29 | 6:16.03 | 269504 | 297706
10 | 66:09.32 | 6:50.42 | 297707 | 328498


Track 1

Filename D:\Torrents\Porcupine Tree - Stars Die The Delerium Years 1991-1997 (2017) [FLAC]\Disc One\01 Radioactive Toy.wav

Pre-gap length 0:00:02.00

Peak level 70.0 %
Extraction speed 3.4 X
Track quality 100.0 %
Test CRC 3AE5E661
Copy CRC 3AE5E661
Track not present in AccurateRip database
Copy OK

Track 2

Filename D:\Torrents\Porcupine Tree - Stars Die The Delerium Years 1991-1997 (2017) [FLAC]\Disc One\02 Nine Cats.wav

Peak level 82.2 %
Extraction speed 3.5 X
Track quality 100.0 %
Test CRC E31F6A36
Copy CRC E31F6A36
Track not present in AccurateRip database
Copy OK

Track 3

Filename D:\Torrents\Porcupine Tree - Stars Die The Delerium Years 1991-1997 (2017) [FLAC]\Disc One\03 And The Swallows Dance Above The Sun.wav

Peak level 87.1 %
Extraction speed 2.7 X
Track quality 100.0 %
Test CRC 4029DEB1
Copy CRC 4029DEB1
Track not present in AccurateRip database
Copy OK

Track 4

Filename D:\Torrents\Porcupine Tree - Stars Die The Delerium Years 1991-1997 (2017) [FLAC]\Disc One\04 Nostalgia Factory.wav

Peak level 87.1 %
Extraction speed 1.7 X
Track quality 99.9 %
Test CRC 585AAC06
Copy CRC 585AAC06
Track not present in AccurateRip database
Copy OK

Track 5

Filename D:\Torrents\Porcupine Tree - Stars Die The Delerium Years 1991-1997 (2017) [FLAC]\Disc One\05 Voyage 34 - phase one.wav

Peak level 97.7 %
Extraction speed 2.0 X
Track quality 99.9 %
Test CRC 3D4AE369
Copy CRC 3D4AE369
Track not present in AccurateRip database
Copy OK

Track 6

Filename D:\Torrents\Porcupine Tree - Stars Die The Delerium Years 1991-1997 (2017) [FLAC]\Disc One\06 Synesthesia - extended version.wav

Peak level 97.7 %
Extraction speed 2.2 X
Track quality 100.0 %
Test CRC 806A9A5A
Copy CRC 806A9A5A
Track not present in AccurateRip database
Copy OK

Track 7

Filename D:\Torrents\Porcupine Tree - Stars Die The Delerium Years 1991-1997 (2017) [FLAC]\Disc One\07 Phantoms.wav

Peak level 66.4 %
Extraction speed 2.1 X
Track quality 100.0 %
Test CRC 56404307
Copy CRC 56404307
Track not present in AccurateRip database
Copy OK

Track 8

Filename D:\Torrents\Porcupine Tree - Stars Die The Delerium Years 1991-1997 (2017) [FLAC]\Disc One\08 Up The Downstair.wav

Peak level 97.7 %
Extraction speed 2.5 X
Track quality 100.0 %
Test CRC FC40691D
Copy CRC FC40691D
Track not present in AccurateRip database
Copy OK

Track 9

Filename D:\Torrents\Porcupine Tree - Stars Die The Delerium Years 1991-1997 (2017) [FLAC]\Disc One\09 Fadeaway.wav

Peak level 97.7 %
Extraction speed 2.5 X
Track quality 100.0 %
Test CRC 44324678
Copy CRC 44324678
Track not present in AccurateRip database
Copy OK

Track 10

Filename D:\Torrents\Porcupine Tree - Stars Die The Delerium Years 1991-1997 (2017) [FLAC]\Disc One\10 Rainy Taxi.wav

Peak level 56.8 %
Extraction speed 2.6 X
Track quality 100.0 %
Test CRC 72131CA1
Copy CRC 72131CA1
Track not present in AccurateRip database
Copy OK


None of the tracks are present in the AccurateRip database

No errors occurred

End of status report

–– CUETools DB Plugin V2.1.6

[CTDB TOCID: _Qaqfcsdgx8yYFp2_xRDT1swff4-] found
Submit result: _Qaqfcsdgx8yYFp2_xRDT1swff4- has been confirmed
Track | CTDB Status
1 | (2/3) Accurately ripped, or (1/3) differs in 4 samples @00:19:25
2 | (3/3) Accurately ripped
3 | (3/3) Accurately ripped
4 | (3/3) Accurately ripped
5 | (3/3) Accurately ripped
6 | (3/3) Accurately ripped
7 | (3/3) Accurately ripped
8 | (3/3) Accurately ripped
9 | (3/3) Accurately ripped
10 | (3/3) Accurately ripped


==== Log checksum 968B63C14F329D0AE13F881B583922D5D6D76058D1940C98066DC18287DCA51F ====

Exact Audio Copy V1.3 from 2. September 2016

EAC extraction logfile from 27. April 2017, 16:40

Porcupine Tree / Stars Die - The Delerium Years 1991-1997 (Disc Two)

Used drive : HL-DT-STBD-RE WH16NS40 Adapter: 1 ID: 0

Read mode : Secure
Utilize accurate stream : Yes
Defeat audio cache : Yes
Make use of C2 pointers : No

Read offset correction : 6
Overread into Lead-In and Lead-Out : No
Fill up missing offset samples with silence : Yes
Delete leading and trailing silent blocks : No
Null samples used in CRC calculations : Yes
Used interface : Native Win32 interface for Win NT & 2000
Gap handling : Appended to previous track

Used output format : User Defined Encoder
Selected bitrate : 1024 kBit/s
Quality : High
Add ID3 tag : No
Command line compressor : C:\My Downloads\FLAC Codec for EAC\flac-1.3.2-win\win64\flac.exe
Additional command line options : -8 -V -T "ARTIST=%artist%" -T "TITLE=%title%" -T "ALBUM=%albumtitle%" -T "DATE=%year%" -T "TRACKNUMBER=%tracknr%" -T "GENRE=%genre%" -T "PERFORMER=%albuminterpret%" -T "COMPOSER=%composer%" %haslyrics%–tag-from-file=LYRICS="%lyricsfile%"%haslyrics% -T "ALBUMARTIST=%albumartist%" -T "DISCNUMBER=%cdnumber%" -T "TOTALDISCS=%totalcds%" -T "TOTALTRACKS=%numtracks%" -T "COMMENT=%comment%" %source% -o %dest%


TOC of the extracted CD

Track | Start | Length | Start sector | End sector
––––––––––––––––––––––––––––-
1 | 0:00.00 | 5:07.35 | 0 | 23059
2 | 5:07.35 | 18:37.48 | 23060 | 106882
3 | 23:45.08 | 3:34.53 | 106883 | 122985
4 | 27:19.61 | 4:27.25 | 122986 | 143035
5 | 31:47.11 | 8:13.57 | 143036 | 180067
6 | 40:00.68 | 3:48.74 | 180068 | 197241
7 | 43:49.67 | 4:32.38 | 197242 | 217679
8 | 48:22.30 | 6:03.49 | 217680 | 244953
9 | 54:26.04 | 5:14.46 | 244954 | 268549
10 | 59:40.50 | 5:30.62 | 268550 | 293361
11 | 65:11.37 | 8:12.65 | 293362 | 330326


Track 1

Filename D:\Torrents\Porcupine Tree - Stars Die The Delerium Years 1991-1997 (2017) [FLAC]\Disc Two\01 Stars Die.wav

Pre-gap length 0:00:02.00

Peak level 97.1 %
Extraction speed 1.6 X
Track quality 100.0 %
Test CRC 159E9914
Copy CRC 159E9914
Track not present in AccurateRip database
Copy OK

Track 2

Filename D:\Torrents\Porcupine Tree - Stars Die The Delerium Years 1991-1997 (2017) [FLAC]\Disc Two\02 The Sky Moves Sideways - Phase One.wav

Peak level 97.7 %
Extraction speed 1.7 X
Track quality 100.0 %
Test CRC F56A01FD
Copy CRC F56A01FD
Track not present in AccurateRip database
Copy OK

Track 3

Filename D:\Torrents\Porcupine Tree - Stars Die The Delerium Years 1991-1997 (2017) [FLAC]\Disc Two\03 Men Of Wood.wav

Peak level 97.7 %
Extraction speed 1.7 X
Track quality 100.0 %
Test CRC 1C6E826F
Copy CRC 1C6E826F
Track not present in AccurateRip database
Copy OK

Track 4

Filename D:\Torrents\Porcupine Tree - Stars Die The Delerium Years 1991-1997 (2017) [FLAC]\Disc Two\04 Waiting.wav

Peak level 97.7 %
Extraction speed 1.9 X
Track quality 100.0 %
Test CRC 1A15B085
Copy CRC 1A15B085
Track not present in AccurateRip database
Copy OK

Track 5

Filename D:\Torrents\Porcupine Tree - Stars Die The Delerium Years 1991-1997 (2017) [FLAC]\Disc Two\05 The Sound Of No-One Listening (2001 Remix).wav

Peak level 97.7 %
Extraction speed 2.1 X
Track quality 100.0 %
Test CRC 45E7ADED
Copy CRC 45E7ADED
Track not present in AccurateRip database
Copy OK

Track 6

Filename D:\Torrents\Porcupine Tree - Stars Die The Delerium Years 1991-1997 (2017) [FLAC]\Disc Two\06 Colourflow In Mind.wav

Peak level 97.7 %
Extraction speed 2.1 X
Track quality 100.0 %
Test CRC 0335D3B4
Copy CRC 0335D3B4
Track not present in AccurateRip database
Copy OK

Track 7

Filename D:\Torrents\Porcupine Tree - Stars Die The Delerium Years 1991-1997 (2017) [FLAC]\Disc Two\07 Fuse The Sky.wav

Peak level 94.8 %
Extraction speed 2.2 X
Track quality 100.0 %
Test CRC 8B2CAF3E
Copy CRC 8B2CAF3E
Track not present in AccurateRip database
Copy OK

Track 8

Filename D:\Torrents\Porcupine Tree - Stars Die The Delerium Years 1991-1997 (2017) [FLAC]\Disc Two\08 Signify II.wav

Peak level 97.7 %
Extraction speed 2.3 X
Track quality 100.0 %
Test CRC C604268E
Copy CRC C604268E
Track not present in AccurateRip database
Copy OK

Track 9

Filename D:\Torrents\Porcupine Tree - Stars Die The Delerium Years 1991-1997 (2017) [FLAC]\Disc Two\09 Every Home Is Wired.wav

Peak level 97.7 %
Extraction speed 2.4 X
Track quality 100.0 %
Test CRC 8163115E
Copy CRC 8163115E
Track not present in AccurateRip database
Copy OK

Track 10

Filename D:\Torrents\Porcupine Tree - Stars Die The Delerium Years 1991-1997 (2017) [FLAC]\Disc Two\10 Sever.wav

Peak level 97.7 %
Extraction speed 2.5 X
Track quality 100.0 %
Test CRC E70E7F92
Copy CRC E70E7F92
Track not present in AccurateRip database
Copy OK

Track 11

Filename D:\Torrents\Porcupine Tree - Stars Die The Delerium Years 1991-1997 (2017) [FLAC]\Disc Two\11 Dark Matter.wav

Peak level 97.7 %
Extraction speed 2.7 X
Track quality 100.0 %
Test CRC 526824BB
Copy CRC 526824BB
Track not present in AccurateRip database
Copy OK


None of the tracks are present in the AccurateRip database

No errors occurred

End of status report

–– CUETools DB Plugin V2.1.6

[CTDB TOCID: kgjliPw8WmJPYYiCHua_estwgNM-] found
Submit result: kgjliPw8WmJPYYiCHua_estwgNM- has been confirmed
Track | CTDB Status
1 | (2/2) Accurately ripped
2 | (2/2) Accurately ripped
3 | (2/2) Accurately ripped
4 | (2/2) Accurately ripped
5 | (2/2) Accurately ripped
6 | (2/2) Accurately ripped
7 | (2/2) Accurately ripped
8 | (2/2) Accurately ripped
9 | (2/2) Accurately ripped
10 | (2/2) Accurately ripped
11 | (2/2) Accurately ripped


==== Log checksum 0846987F559AD4A08B41B5D3FEEEE74A65376F8371FCC47059C2A6B6C1A52928 ====



Porcupine Tree - Stars Die: The Delerium Years 1991-1997 (2002/2017) [2016 Steven Wilson Remaster]

Thanks to the Original ripper zoan2013 !