Subcategories
Tags
Language
Tags

Prince Lasha Ensemble - Insight (1966) {CBS--Dusty Groove DGA3023 rel 2009}

Posted By: ruskaval
Prince Lasha Ensemble - Insight (1966) {CBS--Dusty Groove DGA3023 rel 2009}

Prince Lasha Ensemble - Insight (1966) {CBS–Dusty Groove DGA3023 rel 2009}
EAC rip (secure mode) | FLAC (tracks)+CUE+LOG -> 249 Mb | MP3 @320 -> 95 Mb
Full Artwork @ 300 dpi (jpg) -> 38 Mb | 5% repair rar
© 1966, 2009 CBS UK / Dusty Groove America | DGA3023
Jazz / Hard Bop / Straight-Ahead Jazz / Alto Sax / Flute

Tremendous work from the legendary Prince Lasha – a rare UK-only date from 1966 – and one that has the reedman working away from more familiar contemporaries like Sonny Simmons and Eric Dolphy! The approach on this session is very unique – as Lasha includes harp with the instrumentation, played by David Snell in a style that's right up there with Dorothy Ashby's best jazz work.

Pianist Stan Tracey is also on board – playing beautiful notes that have a sharp modern edge, while still falling on the inside of the spectrum – and Lasha himself is especially great – blowing plastic alto sax and wooden flute, both of which have a slightly offbeat sound – but one that's surprisingly warm, which makes the album one of his most sensitive and soulful sessions ever! The tunes are a mix of standards and originals – and there's a wonderful sense of balance here – sounds that are sometimes more inside than other records from Lasha, but which have a really Dolphy-like sense of expression – right at home amidst a wider history of jazz, yet also reaching for new ideas at the same time. Pure genius throughout, and a record that was never made available to audiences in the US.
Prince Lasha Ensemble - Insight (1966) {CBS--Dusty Groove DGA3023 rel 2009}


allmusic.com INFO

Personnel
Prince Lasha - plastic alto saxophone, wooden flute
David Snell - harp
Chris Bateson - trumpet
John Mumford - trombone
Mike Carr, Stan Tracey - piano
Bruce Cale, Dave Willis, Jeff Clyne, Rick Laird - bass
Joe Oliver - drums

Track Listing
01 - Nuttin Out Jones
02 - Out Of Nowhere
03 - Body & Soul
04 - Impressions Of Eric Dolphy
05 - Everything Happens To Me
06 - Just Friends

EAC extraction logfile from 15. August 2010, 14:06 for CD
Prince Lasha Ensemble / Insight

Used drive : HP DVD Writer 1170d Adapter: 1 ID: 2
Read mode : Secure with NO C2, accurate stream, disable cache
Read offset correction : 6
Overread into Lead-In and Lead-Out : No

Used output format : C:\Eac\Codecs\flac.exe (User Defined Encoder)
320 kBit/s
Additional command line options : -8 -V -T "artist=%a" -T "title=%t" -T "album=%g" -T "date=%y" -T "tracknumber=%n" -T "genre=%m" -T "comment=EAC Flac 1.1.2 -8" %s

Other options :
Fill up missing offset samples with silence : Yes
Delete leading and trailing silent blocks : No
Installed external ASPI interface


Track 1
Filename C:\Documents and Settings\lasha\01 - Nuttin Out Jones.wav

Pre-gap length 0:00:02.00

Peak level 99.6 %
Track quality 100.0 %
Test CRC E7FBEEDB
Copy CRC E7FBEEDB
Copy OK

Track 2
Filename C:\Documents and Settings\lasha\02 - Out Of Nowhere.wav

Pre-gap length 0:00:01.73

Peak level 100.0 %
Track quality 100.0 %
Test CRC E81DFC79
Copy CRC E81DFC79
Copy OK

Track 3
Filename C:\Documents and Settings\lasha\03 - Body & Soul.wav

Pre-gap length 0:00:01.73

Peak level 99.9 %
Track quality 99.9 %
Test CRC 0DE3CFCC
Copy CRC 0DE3CFCC
Copy OK

Track 4
Filename C:\Documents and Settings\lasha\04 - Impressions Of Eric Dolphy.wav

Pre-gap length 0:00:01.73

Peak level 99.5 %
Track quality 100.0 %
Test CRC 663F139B
Copy CRC 663F139B
Copy OK

Track 5
Filename C:\Documents and Settings\lasha\05 - Everything Happens To Me.wav

Pre-gap length 0:00:01.73

Peak level 95.0 %
Track quality 100.0 %
Test CRC 60A04925
Copy CRC 60A04925
Copy OK

Track 6
Filename C:\Documents and Settings\lasha\06 - Just Friends.wav

Pre-gap length 0:00:01.93

Peak level 92.2 %
Track quality 100.0 %
Test CRC FA82ABDD
Copy CRC FA82ABDD
Copy OK

No errors occured


End of status report


Prince Lasha Ensemble - Insight (1966) {CBS--Dusty Groove DGA3023 rel 2009}

Prince Lasha Ensemble - Insight (1966) {CBS--Dusty Groove DGA3023 rel 2009}



===