Tags
Language
Tags

Quatuor Béla - Debussy - Magnard: Quatuors à cordes (2020)

Posted By: delpotro
Quatuor Béla - Debussy - Magnard: Quatuors à cordes (2020)

Quatuor Béla - Debussy - Magnard: Quatuors à cordes (2020)
EAC Rip | FLAC (tracks+log+.cue) - 305 Mb | MP3 CBR 320 kbps - 157 Mb | Digital booklet | 01:08:04
Classical | Label: Le Palais des Dégustateurs

Yet quite contemporary, Claude Debussy (1862-1918) and Alberic Magnard (1865-1914) have very little in common. However, they have each written a unique string quartet (respectively in 1893 and in 1903, and both created by Belgian groups). This common point is far from being anecdotal. Indeed, many French composers of all this pivotal period maintained with the string quartet such a relationship that they arrived at the same result: to write "their" string quartet.
Tracklist:
1. Quatuor à cordes in G Minor, Op. 10, L. 85: No. 1, Animé et très décidé (06:32)
2. Quatuor à cordes in G Minor, Op. 10, L. 85: No. 2, Assez vif et bien rythmé (03:53)
3. Quatuor à cordes in G Minor, Op. 10, L. 85: No. 3, Andantino, doucement expressif (07:41)
4. Quatuor à cordes in G Minor, Op. 10, L. 85: No. 4, Très modéré (07:27)
5. Quatuor à cordes in E Minor, Op. 16: No. 1, Sonate. Animé (14:36)
6. Quatuor à cordes in E Minor, Op. 16: No. 2, Sérénade (06:43)
7. Quatuor à cordes in E Minor, Op. 16: No. 3, Chant funèbre (11:57)
8. Quatuor à cordes in E Minor, Op. 16: No. 4, Danses (09:03)

Exact Audio Copy V1.5 from 20. February 2020

EAC extraction logfile from 24. March 2021, 15:07

Quatuor Bela / Debussy - Magnard - Quatuors

Used drive : ATAPI iHBS112 2 Adapter: 1 ID: 1

Read mode : Secure
Utilize accurate stream : Yes
Defeat audio cache : Yes
Make use of C2 pointers : No

Read offset correction : 6
Overread into Lead-In and Lead-Out : No
Fill up missing offset samples with silence : Yes
Delete leading and trailing silent blocks : No
Null samples used in CRC calculations : Yes
Used interface : Native Win32 interface for Win NT & 2000
Gap handling : Appended to previous track

Used output format : User Defined Encoder
Selected bitrate : 768 kBit/s
Quality : High
Add ID3 tag : No
Command line compressor : C:\Program Files (x86)\Exact Audio Copy\Flac\flac.exe
Additional command line options : -8 -V -T "ARTIST=%artist%" -T "TITLE=%title%" -T "ALBUM=%albumtitle%" -T "DATE=%year%" -T "TRACKNUMBER=%tracknr%" -T "GENRE=%genre%" -T "PERFORMER=%albuminterpret%" -T "COMPOSER=%composer%" -T "ALBUMARTIST=%albumartist%" -T "DISCNUMBER=%cdnumber%" -T "TOTALDISCS=%totalcds%" -T "TOTALTRACKS=%numtracks%" -T "COMMENT=EAC Secure Mode, Test & Copy, AccurateRip, FLAC -8" %source% -o %dest%


TOC of the extracted CD

Track | Start | Length | Start sector | End sector
––––––––––––––––––––––––––––-
1 | 0:00.00 | 6:32.56 | 0 | 29455
2 | 6:32.56 | 3:53.23 | 29456 | 46953
3 | 10:26.04 | 7:41.63 | 46954 | 81591
4 | 18:07.67 | 7:35.06 | 81592 | 115722
5 | 25:42.73 | 14:36.14 | 115723 | 181436
6 | 40:19.12 | 6:43.71 | 181437 | 211732
7 | 47:03.08 | 11:57.47 | 211733 | 265554
8 | 59:00.55 | 9:03.42 | 265555 | 306321


Track 1

Filename G:\DL\Quatuor Bela - Debussy Magnard Quatuors (2020) [FLAC]\01 - Quatuor a cordes en sol min. opus 10 - I. Anime et tres decide.wav

Pre-gap length 0:00:02.00

Peak level 88.6 %
Extraction speed 4.9 X
Track quality 99.9 %
Test CRC F98E52DE
Copy CRC F98E52DE
Track not present in AccurateRip database
Copy OK

Track 2

Filename G:\DL\Quatuor Bela - Debussy Magnard Quatuors (2020) [FLAC]\02 - Quatuor a cordes en sol min. opus 10 - II. Assez vif et bien rythme.wav

Peak level 58.2 %
Extraction speed 5.8 X
Track quality 100.0 %
Test CRC B771A702
Copy CRC B771A702
Track not present in AccurateRip database
Copy OK

Track 3

Filename G:\DL\Quatuor Bela - Debussy Magnard Quatuors (2020) [FLAC]\03 - Quatuor a cordes en sol min. opus 10 - III. Andantino, doucement expressif.wav

Peak level 56.9 %
Extraction speed 6.8 X
Track quality 100.0 %
Test CRC 1A6CDAA2
Copy CRC 1A6CDAA2
Track not present in AccurateRip database
Copy OK

Track 4

Filename G:\DL\Quatuor Bela - Debussy Magnard Quatuors (2020) [FLAC]\04 - Quatuor a cordes en sol min. opus 10 - IV. Tres modere - Tres mouvemente.wav

Peak level 96.0 %
Extraction speed 7.6 X
Track quality 100.0 %
Test CRC 620F2B8A
Copy CRC 620F2B8A
Track not present in AccurateRip database
Copy OK

Track 5

Filename G:\DL\Quatuor Bela - Debussy Magnard Quatuors (2020) [FLAC]\05 - Quatuor a cordes en mi min. opus 16 - I. Sonate. Anime.wav

Pre-gap length 0:00:07.53

Peak level 66.5 %
Extraction speed 8.8 X
Track quality 100.0 %
Test CRC 3ABB892A
Copy CRC 3ABB892A
Track not present in AccurateRip database
Copy OK

Track 6

Filename G:\DL\Quatuor Bela - Debussy Magnard Quatuors (2020) [FLAC]\06 - Quatuor a cordes en mi min. opus 16 - II. Serenade.wav

Peak level 95.1 %
Extraction speed 9.2 X
Track quality 100.0 %
Test CRC 3A1ACEB9
Copy CRC 3A1ACEB9
Track not present in AccurateRip database
Copy OK

Track 7

Filename G:\DL\Quatuor Bela - Debussy Magnard Quatuors (2020) [FLAC]\07 - Quatuor a cordes en mi min. opus 16 - III. Chant funebre.wav

Peak level 54.7 %
Extraction speed 10.2 X
Track quality 100.0 %
Test CRC 61F866CA
Copy CRC 61F866CA
Track not present in AccurateRip database
Copy OK

Track 8

Filename G:\DL\Quatuor Bela - Debussy Magnard Quatuors (2020) [FLAC]\08 - Quatuor a cordes en mi min. opus 16 - IV. Danses.wav

Peak level 82.7 %
Extraction speed 10.7 X
Track quality 100.0 %
Test CRC D9F7FD12
Copy CRC D9F7FD12
Track not present in AccurateRip database
Copy OK


None of the tracks are present in the AccurateRip database

No errors occurred

End of status report

–– CUETools DB Plugin V2.1.6

[CTDB TOCID: WJwzZidCWQkDaRf5P0_Bycupmvk-] found
Submit result: WJwzZidCWQkDaRf5P0_Bycupmvk- has been confirmed
Track | CTDB Status
1 | (1/1) Accurately ripped
2 | (1/1) Accurately ripped
3 | (1/1) Accurately ripped
4 | (1/1) Accurately ripped
5 | (1/1) Accurately ripped
6 | (1/1) Accurately ripped
7 | (1/1) Accurately ripped
8 | (1/1) Accurately ripped


==== Log checksum EA243239E0F157FD69AEB0CE3A7B018EAFF5D1BB7742ABEF35474329450268A9 ====

Thanks to the Original ripper !