Subcategories

Rare Earth - Get Ready (1969)

Posted By: chucky cheese
Rare Earth - Get Ready (1969)

Rare Earth - Get Ready (1969)
EAC RIP FLAC+CUE+LOG | ORIGINAL RECORDING | 295 MB RS DOWNLOAD | 1969 | ROCK 'N SOUL

Rare Earth is an American rock band affiliated with Motown's Rare Earth record label (which was named after the band), who prospered in 1970-1972. Although not the first white band signed to Motown, Rare Earth was the first big hit-making act signed by Motown that consisted only of white members, although a Chicano percussionist later joined the group
Get Ready is the 2nd studio album by rock band Rare Earth, which was released in 1969. It includes a live performance of the famous and multi-covered track Get Ready.

John Parrish - Trombone, bass guitar, Vocals
Gil Bridges - Sax, Tambourine, Vocals
Kenny James - Organ, Electric piano, Vocals
Rod Richards - Guitar, Vocals
Pete Rivera - Drums, Vocals

1. "Magic Key" - 3:50
2. "Tobacco Road" - 7:10
3. "Feeling Alright" - 5:00
4. "In Bed" - 3:00
5. "Train to Nowhere" - 3:20
6. "Get Ready" - 21:30

Exact Audio Copy V0.99 prebeta 3 from 28. July 2007

EAC extraction logfile, 20 April 2009, 22:47

Rare Earth / Get Ready

Used drive: _NEC DVD_RW ND-4571A Adapter: 1 ID: 0


Read: Sure

Use Accurate Stream: Yes

Audio buffer off: Yes

Use C2 error information: No

Leseoffset correction: 48

Read About the Lead-In and Lead-Out: No

Abundance missing offset samples with silence: Yes

Delete leading and trailing silent blocks: No

Samples go to zero in CRC calculations: No

Used interface: Installed external ASPI interface

Used output format: Custom Compressors

Selected bitrate: 768 kbit / s

Quality: High

Add ID3 tag: No

Command line compressor: C: \ Program Files \ Exact Audio Copy \ FLAC \ FLAC.EXE

Additional command line options: -6-V-T "ARTIST =% a"-T "TITLE =% t"-T "ALBUM =% g

"-T "DATE =% y"-T "TRACK NUMBER =% n"-T " GENRE =% m "-T" COMMENT =% e "% s-o% d

TOC of the selected CD

Track | Start | Length | Start sector | Endsector

––––––––––––––––––––––––– ––-

1 | 0:00.00 | 4:01.15 | 0 | 18089

2 | 4:01.15 | 7:15.28 | 18090 | 50742

3 | 11:16.43 | 5:05.02 | 50743 | 73619

4 | 16:21.45 | 3:03.73 | 73620 | 87417

5 | 19:25.43 | 3:25.15 | 87418 | 102807

6 | 22:50.58 | 21:27.57 | 102808 | 199389

Area status and error

Selected area

File Name E: \ New Folder 1 \ Rare Earth - Get Ready.wav

Peak level 97.2%

Quality 100.0%

Copy CRC 3C3A66E9

Copy OK

No errors occurred

End of status report