Subcategories
Tags
Language
Tags

Ricardo Villalobos - Fabric 36

Posted By: FLESH
Ricardo Villalobos - Fabric 36

Ricardo Villalobos - Fabric 36
Electronic, House, Minimal
FLAC+cue+log | 423.5 Mb | MP3, 192 Kbps | 101.51 Mb | Covers
Label: Fabric (London) | Catalog#: FABRIC 71P | Country: UK | Released: Aug 2007

Tracklisting:
1 Ricardo Villalobos Groove 1880 (1:30)
2 Ricardo Villalobos Perc And Drums (3:35)
3 Ricardo Villalobos Moongomery (6:07)
4 Ricardo Villalobos Farenzer House (5:59)
5 Ricardo Villalobos , Patrick Ense (2) M.Bassy (2:26)
6 Ricardo Villalobos Mecker (2:33)
7 Ricardo Villalobos , Jorge Gonzáles 4 Wheel Drive (5:30)
8 Ricardo Villalobos , Patrick Ense (2) Fizpatrick (6:30)
9 Ricardo Villalobos , Andrew Gillings Andruic & Japan (12:29)
10 Ricardo Villalobos Organic Tranceplant (0:59)
11 Ricardo Villalobos Prevorent (2:00)
12 Ricardo Villalobos , Fumiya Tanaka Fumiyandric 2 (2:30)
13 Ricardo Villalobos Won't You Tell Me (6:14)
14 Ricardo Villalobos Primer Encuentro Latino Americano (9:44)
15 Ricardo Villalobos Chropuspel Zündung (6:15)

Exact Audio Copy V0.99 prebeta 3 from 28. July 2007


Отчёт EAC об извлечении, выполненном 14. января 2008, 3:05


Ricardo Villalobos / Fabric 36 Ricardo Villalobos


Дисковод: ASUS DRW-1814BL Adapter: 3 ID: 0


Режим чтения : Достоверность
Использование точного потока : Да
Отключение кэша аудио : Да
Использование указателей C2 : Нет


Коррекция смещения при чтении : 6
Способность читать области Lead-in и Lead-out : Нет
Заполнение пропущенных сэмплов тишиной : Да
Удаление блоков с тишиной в начале и конце : Нет
При вычислениях CRC использовались нулевые сэмплы : Нет
Интерфейс : Установленный внешний ASPI-интерфейс


Выходной формат : Monkey's Audio (без потерь)
Выбранный битрейт : High Lossless Compression
Качество : Высокий
Добавление ID3-тэга : Нет
Утилита сжатия : C:\Program Files\Monkey's Audio\MAC.exe


TOC извлечённого CD


Трек | Старт | Длительность | Начальный сектор | Конечный сектор
––––––––––––––––––––––––––––––––––-
1 | 0:00.00 | 1:30.24 | 0 | 6773
2 | 1:30.24 | 3:22.38 | 6774 | 21961
3 | 4:52.62 | 6:07.38 | 21962 | 49524
4 | 11:00.25 | 5:59.74 | 49525 | 76523
5 | 17:00.24 | 2:26.19 | 76524 | 87492
6 | 19:26.43 | 2:33.39 | 87493 | 99006
7 | 22:00.07 | 5:30.15 | 99007 | 123771
8 | 27:30.22 | 6:30.03 | 123772 | 153024
9 | 34:00.25 | 12:29.74 | 153025 | 209273
10 | 46:30.24 | 0:59.74 | 209274 | 213772
11 | 47:30.23 | 2:00.01 | 213773 | 222773
12 | 49:30.24 | 2:30.01 | 222774 | 234024
13 | 52:00.25 | 6:14.74 | 234025 | 262148
14 | 58:15.24 | 9:44.74 | 262149 | 306022
15 | 68:00.23 | 6:15.07 | 306023 | 334154


Характеристики диапазона извлечения и сообщения об ошибках


Выбранный диапазон


Имя файла C:\Documents and Settings\e-muzik\Мои документы\CDImage.wav


Пиковый уровень 98.8 %
Качество диапазона 100.0 %
CRC копии 1932FD57
Копирование… OK


Ошибок не произошло


Конец отчёта