Subcategories

Richard "Groove" Holmes - Workin' On A Groovy Thing (1968) {Pacific Jazz-Universal Japan UCCU-90032 rel 2014}

Posted By: ruskaval
Richard "Groove" Holmes - Workin' On A Groovy Thing (1968) {Pacific Jazz-Universal Japan UCCU-90032 rel 2014}

Richard "Groove" Holmes - Workin' On A Groovy Thing (1968) {Pacific Jazz-Universal Japan UCCU-90032 rel 2014}
EAC rip (secure mode) | FLAC (tracks)+CUE+LOG -> 249 Mb | MP3 @320 -> 83 Mb
Full Artwork @ 300 dpi (jpg) -> 21 Mb | 5% repair rar
© 1968, 2014 Pacific Jazz / Universal Japan | UCCU-90032
Jazz / Soul Jazz / Groove / Organ

Groove Holmes and Gerald Wilson – a wonderful combination on this late 60s session – in a style that's everything great about mainstream LA jazz at the time! Wilson really has a way with the charts on the session – and although the group is large, they've got a lean, clean sound that bounces along nicely – slightly funky at times, always soulful at others – a perfect backdrop for the well-played Hammond lines that Groove brings to the set! The album's not as much of an all-out organ wailer as some of Holmes' albums for Prestige – but that's a-ok with us, because Wilson's group features some other great players too – including Dennis Budimir on guitar, Tony Ortega and Arnie Watts on saxes, and Paul Humphrey on drums!
Richard "Groove" Holmes - Workin' On A Groovy Thing (1968) {Pacific Jazz-Universal Japan UCCU-90032 rel 2014}


Musicians
Organ Richard "Groove" Holmes
Arrangements, Conductor Gerald Wilson
Trumpet William Peterson
Trumpet Paul Hubinon
Trumpet Jerome Rusch
Trumpet Herbert Anderson
Trombone Thurman Green
Trombone Frank Strong
Saxophone Richard Aplanald
Saxophone Ernie Watts
Saxophone Anthony Ortega
Guitar Dennis Budimir
Drums Paul Humphrey
Bass Wilton Felder
Bass Trombone Mike Wimberley

Richard "Groove" Holmes - Workin' On A Groovy Thing (1968) {Pacific Jazz-Universal Japan UCCU-90032 rel 2014}


tracklist:
01 Isola Natale 04:05
02 Do You Know The Way To San Jose 03:52
03 Workin' On A Groovy Thing 02:46
04 Oklahoma Toad 02:30
05 High Blues Pressure 04:35
06 Listen Here 03:58
07 In And Out 03:27
08 Dreams Of The Everyday Housewife 02:42
09 Rhythm & Groove 04:25
10 I Can't Stop Dancing 02:54

Exact Audio Copy V1.0 beta 3 from 29. August 2011

EAC extraction logfile from 11. June 2014, 7:25

Richard Groove Holmes / Workin' On A Groovy Thing

Used drive : SONY DVD RW DRU-810A Adapter: 1 ID: 0

Read mode : Secure
Utilize accurate stream : Yes
Defeat audio cache : Yes
Make use of C2 pointers : No

Read offset correction : 618
Overread into Lead-In and Lead-Out : No
Fill up missing offset samples with silence : Yes
Delete leading and trailing silent blocks : No
Null samples used in CRC calculations : Yes
Used interface : Native Win32 interface for Win NT & 2000
Gap handling : Appended to previous track

Used output format : User Defined Encoder
Selected bitrate : 128 kBit/s
Quality : High
Add ID3 tag : No
Command line compressor : C:\Program Files (x86)\Exact Audio Copy\Flac\flac.exe
Additional command line options : -8 -V -T "ARTIST=%artist%" -T "TITLE=%title%" -T "ALBUM=%albumtitle%" -T "DATE=%year%" -T "TRACKNUMBER=%tracknr%" -T "TOTALTRACKS=%numtracks%" -T "GENRE=%genre%" -T "ALBUMARTIST=%albumartist%" -T "ALBUM ARTIST=%albumartist%" -T "COMMENT=EAC Secure Mode, Test & Copy, AccurateRip, FLAC -8" %source%


TOC of the extracted CD

Track | Start | Length | Start sector | End sector
––––––––––––––––––––––––––––-
1 | 0:00.00 | 4:12.74 | 0 | 18973
2 | 4:12.74 | 3:56.65 | 18974 | 36738
3 | 8:09.64 | 2:48.44 | 36739 | 49382
4 | 10:58.33 | 2:37.16 | 49383 | 61173
5 | 13:35.49 | 4:37.66 | 61174 | 82014
6 | 18:13.40 | 4:03.69 | 82015 | 100308
7 | 22:17.34 | 3:32.51 | 100309 | 116259
8 | 25:50.10 | 2:46.16 | 116260 | 128725
9 | 28:36.26 | 4:14.04 | 128726 | 147779
10 | 32:50.30 | 2:54.66 | 147780 | 160895


Track 1

Filename F:\New Rips\Richard Groove Holmes - Workin' On A Groovy Thing (1969) [FLAC]\01 - Isole Natale.wav

Pre-gap length 0:00:02.00

Peak level 100.0 %
Extraction speed 3.7 X
Track quality 99.9 %
Test CRC D1B0159E
Copy CRC D1B0159E
Cannot be verified as accurate (confidence 1) [E64455DE], AccurateRip returned [E302962D] (AR v2)
Copy OK

Track 2

Filename F:\New Rips\Richard Groove Holmes - Workin' On A Groovy Thing (1969) [FLAC]\02 - Do You Know The Way To San Jose.wav

Pre-gap length 0:00:02.52

Peak level 100.0 %
Extraction speed 4.8 X
Track quality 100.0 %
Test CRC 1669EC90
Copy CRC 1669EC90
Cannot be verified as accurate (confidence 1) [0F3A7F08], AccurateRip returned [18AD895D] (AR v2)
Copy OK

Track 3

Filename F:\New Rips\Richard Groove Holmes - Workin' On A Groovy Thing (1969) [FLAC]\03 - Workin' On A Groovy Thing.wav

Pre-gap length 0:00:01.74

Peak level 99.8 %
Extraction speed 4.9 X
Track quality 100.0 %
Test CRC A25E1484
Copy CRC A25E1484
Cannot be verified as accurate (confidence 1) [777EFB94], AccurateRip returned [AE2366EA] (AR v2)
Copy OK

Track 4

Filename F:\New Rips\Richard Groove Holmes - Workin' On A Groovy Thing (1969) [FLAC]\04 - Oklahoma Toad.wav

Pre-gap length 0:00:01.65

Peak level 99.9 %
Extraction speed 5.1 X
Track quality 100.0 %
Test CRC 8842C9A0
Copy CRC 8842C9A0
Cannot be verified as accurate (confidence 1) [0F8523A0], AccurateRip returned [FCEAEEA7] (AR v2)
Copy OK

Track 5

Filename F:\New Rips\Richard Groove Holmes - Workin' On A Groovy Thing (1969) [FLAC]\05 - High Blues Pressure.wav

Pre-gap length 0:00:02.39

Peak level 99.9 %
Extraction speed 5.1 X
Track quality 99.9 %
Test CRC 79BB8249
Copy CRC 79BB8249
Cannot be verified as accurate (confidence 1) [9E7D2BCF], AccurateRip returned [5AE0C740] (AR v2)
Copy OK

Track 6

Filename F:\New Rips\Richard Groove Holmes - Workin' On A Groovy Thing (1969) [FLAC]\06 - Listen Here.wav

Pre-gap length 0:00:02.58

Peak level 99.7 %
Extraction speed 6.1 X
Track quality 100.0 %
Test CRC E282D9A7
Copy CRC E282D9A7
Cannot be verified as accurate (confidence 1) [B26BE7F0], AccurateRip returned [652D1966] (AR v2)
Copy OK

Track 7

Filename F:\New Rips\Richard Groove Holmes - Workin' On A Groovy Thing (1969) [FLAC]\07 - In And Out.wav

Pre-gap length 0:00:02.44

Peak level 100.0 %
Extraction speed 6.3 X
Track quality 100.0 %
Test CRC 79DD3FBA
Copy CRC 79DD3FBA
Cannot be verified as accurate (confidence 1) [78D9A2E2], AccurateRip returned [F0946CDC] (AR v2)
Copy OK

Track 8

Filename F:\New Rips\Richard Groove Holmes - Workin' On A Groovy Thing (1969) [FLAC]\08 - Dreams Of The Everyday Housewife.wav

Pre-gap length 0:00:02.74

Peak level 99.8 %
Extraction speed 6.3 X
Track quality 100.0 %
Test CRC 4DD776CF
Copy CRC 4DD776CF
Cannot be verified as accurate (confidence 1) [0BA6C355], AccurateRip returned [9502CBCD] (AR v2)
Copy OK

Track 9

Filename F:\New Rips\Richard Groove Holmes - Workin' On A Groovy Thing (1969) [FLAC]\09 - Rhythm And Groove.wav

Pre-gap length 0:00:03.04

Peak level 100.0 %
Extraction speed 6.9 X
Track quality 100.0 %
Test CRC EF73AEF4
Copy CRC EF73AEF4
Cannot be verified as accurate (confidence 1) [59BA814D], AccurateRip returned [74AEF572] (AR v2)
Copy OK

Track 10

Filename F:\New Rips\Richard Groove Holmes - Workin' On A Groovy Thing (1969) [FLAC]\10 - I Can't Stop Dancing.wav

Pre-gap length 0:00:03.10

Peak level 98.2 %
Extraction speed 6.7 X
Track quality 100.0 %
Test CRC 40BA6DF5
Copy CRC 40BA6DF5
Cannot be verified as accurate (confidence 1) [2A2E9458], AccurateRip returned [686E10C8] (AR v2)
Copy OK


No tracks could be verified as accurate
You may have a different pressing from the one(s) in the database

No errors occurred

End of status report

–– CUETools DB Plugin V2.1.3

[CTDB TOCID: 1rhy2CGMdekRBRTysuUZA5NzkCg-] found, Submit result: 1rhy2CGMdekRBRTysuUZA5NzkCg- has been confirmed
[f658bbc6] (1/1) Accurately ripped


==== Log checksum 744605CE540BC07F5B58574BCB9C6FF175908585382E47F6C93F9AC7CBAF450E ====


Richard "Groove" Holmes - Workin' On A Groovy Thing (1968) {Pacific Jazz-Universal Japan UCCU-90032 rel 2014}

Richard "Groove" Holmes - Workin' On A Groovy Thing (1968) {Pacific Jazz-Universal Japan UCCU-90032 rel 2014}



===