Subcategories

Rob Mazurek - Chants And Corners (2017)

Posted By: delpotro
Rob Mazurek - Chants And Corners (2017)

Rob Mazurek - Chants And Corners (2017)
XLD Rip | FLAC (tracks+log+.cue) | 00:48:43 | 273 Mb
Free Jazz | Label: Clean Feed Records

Electro-Acoustic Composer, Cornetist Rob Mazurek continues to focus on the Brazilian side of his musical production, and that’s good news. Even better when we notice that “Chants and Corners” is something else than a new São Paulo Underground enterprise – some of the contributors are the same, but the project has another confection and this signifies that it’s multiplying in different perspectives, like the flowers of a plant. Playing a modular synth, a sampler and a piano besides his cornet, Mazurek has as partners drummer Mauricio Takara and keyboardist Guilherme Granado (both involved in the two albums recorded live in Portugal by Pharoah & The Underground, the association with Pharoah Sanders of both the Chicago Underground and the São Paulo Underground bands), and also two musicians who preferred to live and work in Brazil, the Swiss rabeca and saxophone player Thomas Rohrer and the British-Chilean pianist Philip Somervell. Of course, the music has a modern psychotropic atmosphere all over it, in the confluence of a large plurality of influences, going from avant-jazz, free improvisation and post-rock to alternative hip-hop and new music. Yes, Mazurek’s imaginary Brazil of sounds is also a big country.
Tracklist:
1. Rob Mazurek, Mauricio Takara, Guilherme Granado, Thomas Rohrer & Philip Somervell – Sparklers for Eyes Like Splintered Lightning (01:22)
2. Rob Mazurek, Mauricio Takara, Guilherme Granado, Thomas Rohrer & Philip Somervell – Mercury Pool and Chrysanthemum Blooms (02:24)
3. Rob Mazurek, Mauricio Takara, Guilherme Granado, Thomas Rohrer & Philip Somervell – Sun Flare Extensions and Other Dimensions (03:00)
4. Rob Mazurek, Mauricio Takara, Guilherme Granado, Thomas Rohrer & Philip Somervell – Halls of Thine Eyes (03:07)
5. Rob Mazurek, Mauricio Takara, Guilherme Granado, Thomas Rohrer & Philip Somervell – Raked Harmonic Sun Burst Strata (04:36)
6. Rob Mazurek, Mauricio Takara, Guilherme Granado, Thomas Rohrer & Philip Somervell – King Spot (05:54)
7. Rob Mazurek, Mauricio Takara, Guilherme Granado, Thomas Rohrer & Philip Somervell – Matrices of Lost Conversations (15:39)
8. Rob Mazurek, Mauricio Takara, Guilherme Granado, Thomas Rohrer & Philip Somervell – The Blue Haze (03:01)
9. Rob Mazurek, Mauricio Takara, Guilherme Granado, Thomas Rohrer & Philip Somervell – Android Sun (09:34)

X Lossless Decoder version 20170729 (150.3)

XLD extraction logfile from 2017-08-03 19:22:20 +0300

Rob Mazurek / Chants And Corners

Used drive : Apple SuperDrive (revision 2.00)
Media type : Pressed CD

Ripper mode : XLD Secure Ripper
Disable audio cache : OK for the drive with a cache less than 1375KiB
Make use of C2 pointers : NO
Read offset correction : 6
Max retry count : 100
Gap status : Analyzed, Appended (except HTOA)

TOC of the extracted CD
Track | Start | Length | Start sector | End sector
––––––––––––––––––––––––––––-
1 | 00:00:00 | 01:22:37 | 0 | 6186
2 | 01:22:37 | 02:24:56 | 6187 | 17042
3 | 03:47:18 | 03:00:12 | 17043 | 30554
4 | 06:47:30 | 03:07:51 | 30555 | 44630
5 | 09:55:06 | 04:36:62 | 44631 | 65392
6 | 14:31:68 | 05:54:54 | 65393 | 91996
7 | 20:26:47 | 15:39:61 | 91997 | 162482
8 | 36:06:33 | 03:01:54 | 162483 | 176111
9 | 39:08:12 | 09:34:70 | 176112 | 219231

AccurateRip Summary
Disc not found in AccurateRip DB.

All Tracks
Album gain : -6.21 dB
Peak : 0.998901
Statistics
Read error : 0
Jitter error (maybe fixed) : 0
Retry sector count : 0
Damaged sector count : 0

Track 01
Filename : /Users/anch/Music/Grabbed/Rob Mazurek/2017 F - Chants And Corners/01 - Sparklers For Eyes Like Splintered Lightning.flac
Pre-gap length : 00:02:00

Track gain : -1.10 dB
Peak : 0.937500
CRC32 hash (test run) : 8888C2D7
CRC32 hash : 8888C2D7
CRC32 hash (skip zero) : 65B06EA6
AccurateRip v1 signature : 92ACBE13
AccurateRip v2 signature : 2E4E7C6F
->Track not present in AccurateRip database.
Statistics
Read error : 0
Jitter error (maybe fixed) : 0
Retry sector count : 0
Damaged sector count : 0

Track 02
Filename : /Users/anch/Music/Grabbed/Rob Mazurek/2017 F - Chants And Corners/02 - Mercury Pool And Chrysanthemum Blooms.flac
Pre-gap length : 00:01:56

Track gain : 2.25 dB
Peak : 0.899231
CRC32 hash (test run) : 0D4434AC
CRC32 hash : 0D4434AC
CRC32 hash (skip zero) : D29BE9D6
AccurateRip v1 signature : B0B55307
AccurateRip v2 signature : 7F3B87DE
->Track not present in AccurateRip database.
Statistics
Read error : 0
Jitter error (maybe fixed) : 0
Retry sector count : 0
Damaged sector count : 0

Track 03
Filename : /Users/anch/Music/Grabbed/Rob Mazurek/2017 F - Chants And Corners/03 - Sun Flare Extentions And Other Dimensions.flac
Pre-gap length : 00:01:57

Track gain : -6.06 dB
Peak : 0.998871
CRC32 hash (test run) : C7EB1C95
CRC32 hash : C7EB1C95
CRC32 hash (skip zero) : 7FC299E7
AccurateRip v1 signature : 61D315F8
AccurateRip v2 signature : E9696AC5
->Track not present in AccurateRip database.
Statistics
Read error : 0
Jitter error (maybe fixed) : 0
Retry sector count : 0
Damaged sector count : 0

Track 04
Filename : /Users/anch/Music/Grabbed/Rob Mazurek/2017 F - Chants And Corners/04 - Halls Of Thine Eyes.flac
Pre-gap length : 00:01:57

Track gain : -6.70 dB
Peak : 0.998901
CRC32 hash (test run) : F3B1BAD1
CRC32 hash : F3B1BAD1
CRC32 hash (skip zero) : 5581F7D5
AccurateRip v1 signature : D9D7488A
AccurateRip v2 signature : F796E36D
->Track not present in AccurateRip database.
Statistics
Read error : 0
Jitter error (maybe fixed) : 0
Retry sector count : 0
Damaged sector count : 0

Track 05
Filename : /Users/anch/Music/Grabbed/Rob Mazurek/2017 F - Chants And Corners/05 - Raked Harmonic Sun Burst Strata.flac
Pre-gap length : 00:01:57

Track gain : -7.60 dB
Peak : 0.998901
CRC32 hash (test run) : BCC53770
CRC32 hash : BCC53770
CRC32 hash (skip zero) : 30A481D8
AccurateRip v1 signature : C963F8DB
AccurateRip v2 signature : 7034A699
->Track not present in AccurateRip database.
Statistics
Read error : 0
Jitter error (maybe fixed) : 0
Retry sector count : 0
Damaged sector count : 0

Track 06
Filename : /Users/anch/Music/Grabbed/Rob Mazurek/2017 F - Chants And Corners/06 - King Spot.flac
Pre-gap length : 00:01:57

Track gain : -6.61 dB
Peak : 0.998901
CRC32 hash (test run) : 21EBDEB9
CRC32 hash : 21EBDEB9
CRC32 hash (skip zero) : 23D605F1
AccurateRip v1 signature : 7E91518A
AccurateRip v2 signature : 5EED93B4
->Track not present in AccurateRip database.
Statistics
Read error : 0
Jitter error (maybe fixed) : 0
Retry sector count : 0
Damaged sector count : 0

Track 07
Filename : /Users/anch/Music/Grabbed/Rob Mazurek/2017 F - Chants And Corners/07 - Matrices Of Lost Conversations.flac
Pre-gap length : 00:01:57

Track gain : -6.08 dB
Peak : 0.998871
CRC32 hash (test run) : 1F956B0E
CRC32 hash : 1F956B0E
CRC32 hash (skip zero) : D1370D09
AccurateRip v1 signature : 09AB2CB6
AccurateRip v2 signature : 67A11F1E
->Track not present in AccurateRip database.
Statistics
Read error : 0
Jitter error (maybe fixed) : 0
Retry sector count : 0
Damaged sector count : 0

Track 08
Filename : /Users/anch/Music/Grabbed/Rob Mazurek/2017 F - Chants And Corners/08 - The Blue Haze.flac
Pre-gap length : 00:01:57

Track gain : -0.56 dB
Peak : 0.655182
CRC32 hash (test run) : 12F5D5E9
CRC32 hash : 12F5D5E9
CRC32 hash (skip zero) : 490A470A
AccurateRip v1 signature : 3E113098
AccurateRip v2 signature : F36E785E
->Track not present in AccurateRip database.
Statistics
Read error : 0
Jitter error (maybe fixed) : 0
Retry sector count : 0
Damaged sector count : 0

Track 09
Filename : /Users/anch/Music/Grabbed/Rob Mazurek/2017 F - Chants And Corners/09 - Andriod Sun.flac
Pre-gap length : 00:01:57

Track gain : -5.52 dB
Peak : 0.998871
CRC32 hash (test run) : F90A0C84
CRC32 hash : F90A0C84
CRC32 hash (skip zero) : 13C72D7B
AccurateRip v1 signature : CA2D63D3
AccurateRip v2 signature : ACA50EF8
->Track not present in AccurateRip database.
Statistics
Read error : 0
Jitter error (maybe fixed) : 0
Retry sector count : 0
Damaged sector count : 0

No errors occurred

End of status report

––-BEGIN XLD SIGNATURE––-
DogGJdyhOIH4mU_Ev1bf0ZPluuy3a.4Yp5jbQbECxjh84yxKeXd.dHOz_IY6cGLYO2WUcFq7oWgIp3ihFndSY6Xb0Cg.zRQJ2YsqsbC
––-END XLD SIGNATURE––-

Thanks to the Original ripper !