Tags
Language
Tags

Robert Fripp - Exposure (1979) {2CD Set Discipline Global Mobile Remaster Limited Edition DGM0602 rel 2006}

Posted By: ruskaval
Robert Fripp - Exposure (1979) {2CD Set Discipline Global Mobile Remaster Limited Edition DGM0602 rel 2006}

Robert Fripp - Exposure (1979) {2CD Set Discipline Global Mobile Remaster Limited Edition DGM0602 rel 2006}
EAC rip (secure mode) | FLAC (tracks)+CUE+LOG -> 669 Mb | MP3 @320 -> 242 Mb
Full Artwork @ 300 dpi (jpg) -> 27 Mb | 5% repair rar
© 1979, 2006 Discipline Global Mobile | DGM0602
Rock / Art Rock / Experimental / Prog-Rock / Avant-Prog

Robert Fripp's solo debut, originally released in 1979, Exposure is not only an important release historically in terms of influencing much music to come, including post-punk popular groups of today, it also is a who's who of guest musicians from Daryl Hall to Peter Gabriel, Peter Hammill, Terre Roche, Brian Eno, Tony Levin, Phil Collins, Narada Michael Walden, Jerry Marotta, Barry Andrews and Sid McGinnis. This standard edition is being released as a two disc set, with 24-page booklet. Remastered with many previously unreleased tracks. The jewel case version is being released simultaneously with a limited edition gatefold deluxe version which will appeal to the large base of serious Fripp collectors. Only packaging differs between the two versions tracks remain the same.
Robert Fripp - Exposure (1979) {2CD Set Discipline Global Mobile Remaster Limited Edition DGM0602 rel 2006}

Robert Fripp's only proper solo album, Exposure, has a tortured history that reflects everything Fripp loves about the creative process of making music and everything he despises about the music industry in microcosm. Fripp had walked away from music in 1974, following yet another dissolution of King Crimson and the mounting headaches of fame, management, and record companies. He returned to music in 1977 at the request of David Bowie and Brian Eno to play "some hairy rock guitar" on Bowie's Heroes, and these sessions allowed Fripp to regain contact with his creative side and a new album was planned. Working with an incredibly wide range of musicians (including Daryl Hall, Peter Gabriel, Tony Levin, Eno, Terre Roche, and former members of King Crimson), Fripp recorded an album with the working title The Last Great New York Heartthrob. Then, things got ugly. Hall's management (Tommy Mottola) said that Fripp could only use two of the seven tracks with Daryl Hall's vocals unless the album were co-billed to Fripp and Hall and released on Hall's label, RCA. Fripp refused, and decided to use the two allotted Hall vocals and redo the other tracks Hall appeared on. However, rather than simply replace the vocals with another singer, Fripp recut the songs in their entirety using the original musicians if he could, and replaced the original players if he couldn't. Of course, this delayed the intended release of the album and ended up changing the album itself, becoming the original version of Exposure, which was released in 1979. When CDs came along, the album was remixed by Fripp, so the "original" Exposure has never been available on CD until now. That's the first disc of this special edition. The second disc has the remixed versions of the songs, but instead of a straight reissue of the remixed version, three more of the original (and previously unreleased) Hall vocals are substituted back in to the album, and the remaining alternate vocals (some unreleased, some from the remix) are added at the end as "bonus tracks." And that doesn't even go into the debacle with the Fripp-produced Daryl Hall album, Sacred Songs, which is another aspect of the same ugly story. Confused yet?

Robert Fripp - Exposure (1979) {2CD Set Discipline Global Mobile Remaster Limited Edition DGM0602 rel 2006}


OK, travails aside, what about the music? Fripp himself introduces the album by saying "Can I play you, um, some of the new things I've been doing which I think could be…commercial?" "Could be" is certainly the operative phrase there (although a few of the songs might have thrived in today's AAA marketplace), but this album is quite amazing in its breadth. From stomping, pounding, nearly punk rock ("You Burn Me Up I'm a Cigarette") to beautiful ballads ("North Star") to avant weirdness ("Disengage," "NY3") to incredibly beautiful, not-quite ambient Frippertronics ("Water Music II") to jagged instrumentals that would point the way toward the re-formation of King Crimson ("Breathless"), Fripp and company cover a ridiculously wide range of material and never miss a step. The album careens back and forth between beauty and power, tied together by Fripp's incredible guitar and Frippertronics. The vocals are uniformly excellent, with Daryl Hall and Terre Roche turning in some surprisingly feral performances alongside their beautifully sung ballads (Peter Hammill's feral vocals are less out of character). It's also interesting to contrast the songs that feature different vocalists in their different incarnations, like "Disengage" and "Exposure." Especially interesting is the previously unreleased Hall version of "NY3" (retitled "New York New York New York"), where the audio vérité of "NY3" is replaced by completely different lyrics and vocals by Hall. The version of Peter Gabriel's "Here Comes the Flood" on Exposure replaces the bombastic orchestrations of Gabriel's version with just synth (Eno), Frippertronics, and Gabriel's piano and vocals, completely transforming the song. Tony Levin's bass playing is fantastic, giving good reason why he's still working with Fripp more than 25 years later. Exposure was an underground masterpiece: there wasn't anything like it before and there hasn't been since. The passage of time has done nothing to dull its luster. Given the album's success on purely creative terms, it's interesting to note the paths here that Fripp didn't really investigate further – i.e., the more pop-oriented stuff (probably induced by the commercial wranglings of management rather than lack of interest in the material). This deluxe reissue not only offers the first digital opportunity to hear the album as it was originally released, it's a boon for the Fripp faithful who finally get to hear what the album might have been as well. It's an amazingly creative burst and a landmark album that sounds just as fresh today as it did decades ago.
Robert Fripp - Exposure (1979) {2CD Set Discipline Global Mobile Remaster Limited Edition DGM0602 rel 2006}


Personnel:
Robert Fripp — guitars, Frippertronics
Daryl Hall — vocals, piano
Terre Roche — vocals
Peter Hammill — vocals
Peter Gabriel — vocals, piano, voice
Brian Eno — synthesizer, voice
Barry Andrews — organ
Sid McGinnis — rhythm guitar, pedal steel guitar
Tony Levin — bass
Jerry Marotta — drums
Narada Michael Walden — drums
Phil Collins — drums

Robert Fripp - Exposure (1979) {2CD Set Discipline Global Mobile Remaster Limited Edition DGM0602 rel 2006}


tracklist:
Disc 1
Volume One: (First Edition: original 1979 release)

01 - Preface
02 - You Burn Me Up I'm a Cigarette
03 - Breathless
04 - Disengage (Hammill vocal)
05 - North Star
06 - Chicago (Hammill vocal)
07 - NY3
08 - Mary (Roche vocal)
09 - Exposure
10 - Hееden Two
11 - Urban Landscape
12 - I May Not Have Had Enough of Me But I've Had Enough of You
13 - First Inaugural Address to the I.A.C.E. Sherborne House
14 - Water Music I
15 - Here Comes the Flood
16 - Water Music II
17 - Postscript

Disc 2
Volume Two: (Third Edition: the 1983 remix, 1985 re-release, including 3 formerly unreleased daryl Hall vocals)

01 - Preface
02 - You Burn Me Up I'm a Cigarette
03 - Breathless
04 - Disengage II (Hall vocal)
05 - North Star
06 - Chicago
07 - New York, New York, New York (Hall vocal)
08 - Mary (Roche vocal)
09 - Exposure
10 - Hееden Two
11 - Urban Landscape
12 - I May Not Have Had Enough of Me But I've Had Enough of You
13 - First Inaugural Address to the I.A.C.E. Sherborne House
14 - Water Music I
15 - Here Comes the Flood
16 - Water Music II
17 - Postscript

Volume Three: (Bonus tracks: alternate takes)
18 - Exposure (Hall vocal; previously unreleased alternate take)
19 - Mary (Hall vocal; previously unreleased alternate take)
20 - Disengage (Hammill vocal; same version as used in 1985 Release)
21 - Chicago (Hammill and Roche vocals; same version as used in 1985 Release)
22 - NY3 (Andrews organ; same version as used in 1985 Release)

Exact Audio Copy V0.99 prebeta 4 from 23. January 2008

EAC extraction logfile from 4. October 2009, 13:24

Robert Fripp / Exposure (Disc 1)

Used drive : HL-DT-STDVD-RAM GH22NP20 Adapter: 1 ID: 0

Read mode : Secure
Utilize accurate stream : Yes
Defeat audio cache : Yes
Make use of C2 pointers : No

Read offset correction : 102
Overread into Lead-In and Lead-Out : No
Fill up missing offset samples with silence : Yes
Delete leading and trailing silent blocks : No
Null samples used in CRC calculations : Yes
Used interface : Native Win32 interface for Win NT & 2000
Gap handling : Appended to previous track

Used output format : User Defined Encoder
Selected bitrate : 1024 kBit/s
Quality : High
Add ID3 tag : No
Command line compressor : C:\Program Files\Exact Audio Copy\FLAC\FLAC.EXE
Additional command line options : -8 -V -T "ARTIST=%a" -T "TITLE=%t" -T "ALBUM=%g" -T "DATE=%y" -T "TRACKNUMBER=%n" -T "GENRE=%m" -T "COMMENT=EAC FLAC -8" %s


TOC of the extracted CD

Track | Start | Length | Start sector | End sector
––––––––––––––––––––––––––––-
1 | 0:00.00 | 1:15.48 | 0 | 5672
2 | 1:15.48 | 2:23.30 | 5673 | 16427
3 | 3:39.03 | 4:45.52 | 16428 | 37854
4 | 8:24.55 | 2:46.72 | 37855 | 50376
5 | 11:11.52 | 3:06.20 | 50377 | 64346
6 | 14:17.72 | 2:12.09 | 64347 | 74255
7 | 16:30.06 | 2:24.07 | 74256 | 85062
8 | 18:54.13 | 2:08.57 | 85063 | 94719
9 | 21:02.70 | 4:26.02 | 94720 | 114671
10 | 25:28.72 | 2:53.44 | 114672 | 127690
11 | 28:22.41 | 2:34.63 | 127691 | 139303
12 | 30:57.29 | 3:44.16 | 139304 | 156119
13 | 34:41.45 | 0:04.51 | 156120 | 156470
14 | 34:46.21 | 1:27.12 | 156471 | 163007
15 | 36:13.33 | 4:07.28 | 163008 | 181560
16 | 40:20.61 | 4:28.21 | 181561 | 201681
17 | 44:49.07 | 0:37.47 | 201682 | 204503


Track 1

Filename E:\Robert Fripp - Exposure (2005) [FLAC]\Disc 1\01 - Preface.wav

Pre-gap length 0:00:02.00

Peak level 77.8 %
Track quality 100.0 %
Test CRC 9AAA507B
Copy CRC 9AAA507B
Accurately ripped (confidence 18) [B4DE24CB]
Copy OK

Track 2

Filename E:\Robert Fripp - Exposure (2005) [FLAC]\Disc 1\02 - You Burn Me Up I'm A Cigarette.wav

Peak level 99.1 %
Track quality 100.0 %
Test CRC AC56C4AE
Copy CRC AC56C4AE
Accurately ripped (confidence 18) [CA964042]
Copy OK

Track 3

Filename E:\Robert Fripp - Exposure (2005) [FLAC]\Disc 1\03 - Breathless.wav

Peak level 98.8 %
Track quality 100.0 %
Test CRC 371AEA7A
Copy CRC 371AEA7A
Accurately ripped (confidence 19) [BFFF9E1D]
Copy OK

Track 4

Filename E:\Robert Fripp - Exposure (2005) [FLAC]\Disc 1\04 - Disengage.wav

Peak level 99.9 %
Track quality 100.0 %
Test CRC 40C477E7
Copy CRC 40C477E7
Accurately ripped (confidence 18) [A7FDC156]
Copy OK

Track 5

Filename E:\Robert Fripp - Exposure (2005) [FLAC]\Disc 1\05 - North Star.wav

Pre-gap length 0:00:01.38

Peak level 100.0 %
Track quality 99.9 %
Test CRC 8599B57E
Copy CRC 8599B57E
Accurately ripped (confidence 18) [86F9D6CA]
Copy OK

Track 6

Filename E:\Robert Fripp - Exposure (2005) [FLAC]\Disc 1\06 - Chicago.wav

Peak level 100.0 %
Track quality 100.0 %
Test CRC 516907FF
Copy CRC 516907FF
Accurately ripped (confidence 18) [213ABC28]
Copy OK

Track 7

Filename E:\Robert Fripp - Exposure (2005) [FLAC]\Disc 1\07 - NY3.wav

Peak level 100.0 %
Track quality 99.9 %
Test CRC AC3246DA
Copy CRC AC3246DA
Accurately ripped (confidence 17) [5F80AE84]
Copy OK

Track 8

Filename E:\Robert Fripp - Exposure (2005) [FLAC]\Disc 1\08 - Mary.wav

Pre-gap length 0:00:05.32

Peak level 100.0 %
Track quality 100.0 %
Test CRC E5A3C1C7
Copy CRC E5A3C1C7
Accurately ripped (confidence 18) [0BA97F1E]
Copy OK

Track 9

Filename E:\Robert Fripp - Exposure (2005) [FLAC]\Disc 1\09 - Exposure.wav

Peak level 100.0 %
Track quality 100.0 %
Test CRC 4CE0887B
Copy CRC 4CE0887B
Accurately ripped (confidence 19) [EF43B454]
Copy OK

Track 10

Filename E:\Robert Fripp - Exposure (2005) [FLAC]\Disc 1\10 - Haaden Two.wav

Peak level 97.3 %
Track quality 100.0 %
Test CRC C8C4208F
Copy CRC C8C4208F
Accurately ripped (confidence 18) [1D826740]
Copy OK

Track 11

Filename E:\Robert Fripp - Exposure (2005) [FLAC]\Disc 1\11 - Urban Landscape.wav

Peak level 22.5 %
Track quality 100.0 %
Test CRC 0DE4FD21
Copy CRC 0DE4FD21
Accurately ripped (confidence 18) [97FF2474]
Copy OK

Track 12

Filename E:\Robert Fripp - Exposure (2005) [FLAC]\Disc 1\12 - I May Not Have Enough Of Me But I've Had Enough of You.wav

Peak level 97.7 %
Track quality 100.0 %
Test CRC 9D5C6F0A
Copy CRC 9D5C6F0A
Accurately ripped (confidence 18) [11FC2DC9]
Copy OK

Track 13

Filename E:\Robert Fripp - Exposure (2005) [FLAC]\Disc 1\13 - 1st Inaugural Address to the I.A.C.E. Sherborne House.wav

Peak level 94.9 %
Track quality 100.0 %
Test CRC 65ACCF5C
Copy CRC 65ACCF5C
Track not present in AccurateRip database
Copy OK

Track 14

Filename E:\Robert Fripp - Exposure (2005) [FLAC]\Disc 1\14 - Water Music I.wav

Peak level 19.7 %
Track quality 100.0 %
Test CRC 602A5884
Copy CRC 602A5884
Accurately ripped (confidence 18) [91CE387D]
Copy OK

Track 15

Filename E:\Robert Fripp - Exposure (2005) [FLAC]\Disc 1\15 - Here Comes The Flood.wav

Peak level 98.8 %
Track quality 99.9 %
Test CRC 74CDA587
Copy CRC 74CDA587
Accurately ripped (confidence 18) [98F1292B]
Copy OK

Track 16

Filename E:\Robert Fripp - Exposure (2005) [FLAC]\Disc 1\16 - Water Music II.wav

Pre-gap length 0:00:06.96

Peak level 31.8 %
Track quality 99.9 %
Test CRC 4DE6E2D6
Copy CRC 4DE6E2D6
Accurately ripped (confidence 17) [BBC74034]
Copy OK

Track 17

Filename E:\Robert Fripp - Exposure (2005) [FLAC]\Disc 1\17 - Postscript.wav

Pre-gap length 0:00:13.09

Peak level 15.9 %
Track quality 100.0 %
Test CRC 51DB82BC
Copy CRC 51DB82BC
Accurately ripped (confidence 17) [E4F35E3B]
Copy OK


16 track(s) accurately ripped
1 track(s) not present in the AccurateRip database

Some tracks could not be verified as accurate

No errors occurred

End of status report

Exact Audio Copy V0.99 prebeta 4 from 23. January 2008

EAC extraction logfile from 4. October 2009, 14:26

Robert Fripp / Exposure (Disc 2)

Used drive : HL-DT-STDVD-RAM GH22NP20 Adapter: 1 ID: 0

Read mode : Secure
Utilize accurate stream : Yes
Defeat audio cache : Yes
Make use of C2 pointers : No

Read offset correction : 102
Overread into Lead-In and Lead-Out : No
Fill up missing offset samples with silence : Yes
Delete leading and trailing silent blocks : No
Null samples used in CRC calculations : Yes
Used interface : Native Win32 interface for Win NT & 2000
Gap handling : Appended to previous track

Used output format : User Defined Encoder
Selected bitrate : 1024 kBit/s
Quality : High
Add ID3 tag : No
Command line compressor : C:\Program Files\Exact Audio Copy\FLAC\FLAC.EXE
Additional command line options : -8 -V -T "ARTIST=%a" -T "TITLE=%t" -T "ALBUM=%g" -T "DATE=%y" -T "TRACKNUMBER=%n" -T "GENRE=%m" -T "COMMENT=EAC FLAC -8" %s


TOC of the extracted CD

Track | Start | Length | Start sector | End sector
––––––––––––––––––––––––––––-
1 | 0:00.00 | 1:15.47 | 0 | 5671
2 | 1:15.47 | 2:24.09 | 5672 | 16480
3 | 3:39.56 | 4:42.47 | 16481 | 37677
4 | 8:22.28 | 2:43.44 | 37678 | 49946
5 | 11:05.72 | 3:12.29 | 49947 | 64375
6 | 14:18.26 | 2:17.41 | 64376 | 74691
7 | 16:35.67 | 2:17.65 | 74692 | 85031
8 | 18:53.57 | 2:08.50 | 85032 | 94681
9 | 21:02.32 | 4:25.74 | 94682 | 114630
10 | 25:28.31 | 1:57.49 | 114631 | 123454
11 | 27:26.05 | 2:34.54 | 123455 | 135058
12 | 30:00.59 | 3:37.42 | 135059 | 151375
13 | 33:38.26 | 0:07.20 | 151376 | 151920
14 | 33:45.46 | 1:18.52 | 151921 | 157822
15 | 35:04.23 | 3:55.61 | 157823 | 175508
16 | 39:00.09 | 3:53.62 | 175509 | 193045
17 | 42:53.71 | 0:55.14 | 193046 | 197184
18 | 43:49.10 | 4:28.11 | 197185 | 217295
19 | 48:17.21 | 2:06.47 | 217296 | 226792
20 | 50:23.68 | 2:49.45 | 226793 | 239512
21 | 53:13.38 | 2:02.67 | 239513 | 248729
22 | 55:16.30 | 2:15.55 | 248730 | 258909


Track 1

Filename E:\Robert Fripp - Exposure (2005) [FLAC]\Disc 2\01 - Preface.wav

Pre-gap length 0:00:02.00

Peak level 52.5 %
Track quality 100.0 %
Test CRC 28E647D5
Copy CRC 28E647D5
Accurately ripped (confidence 17) [86DC3D45]
Copy OK

Track 2

Filename E:\Robert Fripp - Exposure (2005) [FLAC]\Disc 2\02 - You Burn Me Up I'm A Cigarette.wav

Peak level 98.0 %
Track quality 99.9 %
Test CRC F246E994
Copy CRC F246E994
Accurately ripped (confidence 17) [CA706A6B]
Copy OK

Track 3

Filename E:\Robert Fripp - Exposure (2005) [FLAC]\Disc 2\03 - Breathless.wav

Pre-gap length 0:00:01.37

Peak level 99.0 %
Track quality 100.0 %
Test CRC 82F43BE2
Copy CRC 82F43BE2
Accurately ripped (confidence 18) [6DA41C7A]
Copy OK

Track 4

Filename E:\Robert Fripp - Exposure (2005) [FLAC]\Disc 2\04 - Disengage.wav

Peak level 99.9 %
Track quality 100.0 %
Test CRC 4ADF993E
Copy CRC 4ADF993E
Accurately ripped (confidence 17) [072F5EB0]
Copy OK

Track 5

Filename E:\Robert Fripp - Exposure (2005) [FLAC]\Disc 2\05 - North Star.wav

Pre-gap length 0:00:01.21

Peak level 100.0 %
Track quality 100.0 %
Test CRC 955283B6
Copy CRC 955283B6
Accurately ripped (confidence 17) [A15C35F5]
Copy OK

Track 6

Filename E:\Robert Fripp - Exposure (2005) [FLAC]\Disc 2\06 - Chicago.wav

Pre-gap length 0:00:00.70

Peak level 99.2 %
Track quality 100.0 %
Test CRC 03F4BAA5
Copy CRC 03F4BAA5
Accurately ripped (confidence 17) [54BD697E]
Copy OK

Track 7

Filename E:\Robert Fripp - Exposure (2005) [FLAC]\Disc 2\07 - New York, New York, New York.wav

Pre-gap length 0:00:00.50

Peak level 100.0 %
Track quality 100.0 %
Test CRC CA0C4550
Copy CRC CA0C4550
Accurately ripped (confidence 16) [4385F32B]
Copy OK

Track 8

Filename E:\Robert Fripp - Exposure (2005) [FLAC]\Disc 2\08 - Mary.wav

Pre-gap length 0:00:02.37

Peak level 90.0 %
Track quality 100.0 %
Test CRC 0A5E62F8
Copy CRC 0A5E62F8
Accurately ripped (confidence 17) [B5EBEFE0]
Copy OK

Track 9

Filename E:\Robert Fripp - Exposure (2005) [FLAC]\Disc 2\09 - Exposure.wav

Peak level 98.9 %
Track quality 99.9 %
Test CRC 1D40629D
Copy CRC 1D40629D
Accurately ripped (confidence 18) [76B307B4]
Copy OK

Track 10

Filename E:\Robert Fripp - Exposure (2005) [FLAC]\Disc 2\10 - Haaden Two.wav

Pre-gap length 0:00:00.17

Peak level 100.0 %
Track quality 100.0 %
Test CRC CB87BA8D
Copy CRC CB87BA8D
Accurately ripped (confidence 18) [01F73AC3]
Copy OK

Track 11

Filename E:\Robert Fripp - Exposure (2005) [FLAC]\Disc 2\11 - Urban Landscape.wav

Peak level 27.2 %
Track quality 99.9 %
Test CRC FC61191D
Copy CRC FC61191D
Accurately ripped (confidence 17) [7D92DC0E]
Copy OK

Track 12

Filename E:\Robert Fripp - Exposure (2005) [FLAC]\Disc 2\12 - I May Not Have Had Enough Of Me But I've Had Enough Of You.wav

Peak level 100.0 %
Track quality 100.0 %
Test CRC EF22BC02
Copy CRC EF22BC02
Accurately ripped (confidence 17) [85B30297]
Copy OK

Track 13

Filename E:\Robert Fripp - Exposure (2005) [FLAC]\Disc 2\13 - First Inaugural Address To The I.A.C.E. Sherborne House.wav

Peak level 98.6 %
Track quality 100.0 %
Test CRC 1B73F07F
Copy CRC 1B73F07F
Accurately ripped (confidence 16) [EF7071B1]
Copy OK

Track 14

Filename E:\Robert Fripp - Exposure (2005) [FLAC]\Disc 2\14 - Water Music I.wav

Pre-gap length 0:00:03.14

Peak level 43.4 %
Track quality 99.8 %
Test CRC 47D32D17
Copy CRC 47D32D17
Accurately ripped (confidence 17) [C5364D50]
Copy OK

Track 15

Filename E:\Robert Fripp - Exposure (2005) [FLAC]\Disc 2\15 - Here Comes The Flood.wav

Peak level 100.0 %
Track quality 100.0 %
Test CRC FE0ACFBB
Copy CRC FE0ACFBB
Accurately ripped (confidence 18) [486DDC49]
Copy OK

Track 16

Filename E:\Robert Fripp - Exposure (2005) [FLAC]\Disc 2\16 - Water Music II.wav

Pre-gap length 0:00:01.72

Peak level 95.9 %
Track quality 100.0 %
Test CRC 9AA7ED4B
Copy CRC 9AA7ED4B
Accurately ripped (confidence 18) [80C70369]
Copy OK

Track 17

Filename E:\Robert Fripp - Exposure (2005) [FLAC]\Disc 2\17 - Postscript.wav

Pre-gap length 0:00:03.74

Peak level 64.8 %
Track quality 100.0 %
Test CRC 593002DC
Copy CRC 593002DC
Accurately ripped (confidence 17) [71FD76DC]
Copy OK

Track 18

Filename E:\Robert Fripp - Exposure (2005) [FLAC]\Disc 2\18 - Exposure [Alternative Take].wav

Peak level 100.0 %
Track quality 100.0 %
Test CRC A5E4312A
Copy CRC A5E4312A
Accurately ripped (confidence 17) [9449FB3B]
Copy OK

Track 19

Filename E:\Robert Fripp - Exposure (2005) [FLAC]\Disc 2\19 - Mary [Alternative Take].wav

Pre-gap length 0:00:01.18

Peak level 96.0 %
Track quality 100.0 %
Test CRC BF202ED4
Copy CRC BF202ED4
Accurately ripped (confidence 16) [7C0D571A]
Copy OK

Track 20

Filename E:\Robert Fripp - Exposure (2005) [FLAC]\Disc 2\20 - Disengage [Alternative Take].wav

Pre-gap length 0:00:00.92

Peak level 99.9 %
Track quality 100.0 %
Test CRC 101CD9DE
Copy CRC 101CD9DE
Accurately ripped (confidence 16) [CCB8835B]
Copy OK

Track 21

Filename E:\Robert Fripp - Exposure (2005) [FLAC]\Disc 2\21 - Chicago [Alternative Take].wav

Peak level 100.0 %
Track quality 100.0 %
Test CRC 8B94FCD0
Copy CRC 8B94FCD0
Accurately ripped (confidence 16) [F05F28D6]
Copy OK

Track 22

Filename E:\Robert Fripp - Exposure (2005) [FLAC]\Disc 2\22 - NY3 [Alternative Take].wav

Pre-gap length 0:00:00.80

Peak level 98.8 %
Track quality 100.0 %
Test CRC 720655AB
Copy CRC 720655AB
Accurately ripped (confidence 16) [20B2A6B0]
Copy OK


All tracks accurately ripped

No errors occurred

End of status report


Robert Fripp - Exposure (1979) {2CD Set Discipline Global Mobile Remaster Limited Edition DGM0602 rel 2006}

Robert Fripp - Exposure (1979) {2CD Set Discipline Global Mobile Remaster Limited Edition DGM0602 rel 2006}



===