Subcategories

Richard Hayman and his Symphony Orchestra - Romantic Broadway (1991)

Posted By: Speedyclick
Richard Hayman and his Symphony Orchestra - Romantic Broadway (1991)

Richard Hayman and his Symphony Orchestra - Romantic Broadway (1991)
EAC Rip | FLAC (image & cue & log) | tracks: 7 | ~ 359 Mb | 1:06:26 | Scans
Label: Naxos International | 5% recovery record | Genre: Classical, instrumental, musical

A delightful collection of musical highlights from Broadway performances with a romantic flavor, interpreted by a big symphonic orchestra conducted by America's favorite 'Pops' conductor, Richard Hayman. A hybrid of Europe and US, this CD will amaze you, with arrangements of Lehar's and O.Strauss' waltzes, under the baguette of a high talented and experienced American maestro. A musical experiment with wonderful results.

America's favourite 'Pops' conductor, Richard Hayman is Principal 'Pops' Conductor of the Saint Louis, Hartford and Grand Rapids symphony orchestras, of Orchestra London Canada and the Calgary Philharmonic Orchestra, and also held that post with the Detroit Symphony Orchestra for many years. His original compositions are standards in the repertoire of these ensembles as well as frequently-performed selections of many orchestras and bands throughout the world. For over 30 years, Richard Hayman served as the chief arranger for the Boston Pops Orchestra during Arthur Fiedler’s tenure, providing special arrangements for dozens of their hit albums and famous singles. Under John Williams’ direction, the orchestra continues to program his award-winning arrangements and orchestrations. During the past several years, Richard Hayman has been concentrating most of his time on guest-conducting special 'Pops' concerts. He is reinvited, season after season, by all the leading orchestras across the United States and Canada, to conduct these popular entertainments during their regular seasons, as well as for their summer festivals.

Now residing in New York City, Richard Hayman's work is in constant demand, in every medium of musical expression, from Boston to Hollywood. Though more involved with the symphony orchestra circuit, he has served as musical director and/or master of ceremonies for the tour shows of many popular entertainers: Kenny Rogers, Johnny Cash, Olivia Newton-John, Tom Jones, Engelbert Humperdinck, The Carpenters, The Osmonds, Al Hin, Andy Williams and many others. Richard Hayman and His Orchestra have been presented in 23 albums and 27 hit singles by Mercury Records, for which he served as musical director for 12 years. Dozens of his original compositions have been recorded by various artists all over the world. He has also arranged and conducted recordings for more than 50 stars of the motion picture, stage, radio and television world. He has also scoréd Broadway shows and numerous motion pictures.

ln 1960, Richard Hayman was honored with his own star in Hollywood’s Walk of Fame. Other awards have included a Certificate of Recognition from Cosmopolitan magazine for Achievement in Bettering Popular Music, the Edison Award for Creative Achievement in Recorded Arts from the Academy of Musical Recorded Arts and Sciences and the National TV Festival and Forum Award. For Naxos International, Richard Hayman records some ten compact discs every year ranging from the music of Leroy Anderson to the Best of John Williams and theme programmes such as Love Is A Many-Splendoured Thing, Viva Espana and others.
TRACKLIST
01. S. Romberg - The Student Prince
Arrival Of The Prince - Serenade - Deep ln My Heart, Dear - Students’ Marching Song - Drinking Song - Just We Two - Entrance Of Officers.
02. F. Lehar - The Merry Widow Waltz
03. S. Romberg - The New Moon
Stout-Hearted Men - Lover, Come Back To Me l - The Girl On The Prow - Try Her Out At Dances - Marianne - Wanting You - Softly As In A Morning Sunrise - One Kiss - Finale: (reprise) Stout-Hearted Men.
04. V. Youmans - Hit the Deck
Join The Navy - The Harbor Of My Heart - Nothing Could Be Sweeter - Sometimes I’m Happy - Shore Leave - Lucky Bird - Loo Loo - Hallelujah.
05. O. Strauss - The Chocolate Soldiers
The Chocolate Soldier - Come, Come, My Hero - Sympathy - The Bulgarians - Tiralala - Thank The Lord The War ls Over - Falling ln Love - Forgive, Forgive - That Would Be Lovely - Dance - The Little Song - Finale: (reprise).Come, Come My Hero.
06. V. Youmans - No, No, Nanette
I Want To Be Happy - Too Many Rings Around Rosie - Tea For Two - Waiting For You - You Can Dance With Any Girl At All - No No Nanette.
07. O. Hammerstein - Showboat
Old Man River - Why Do I Love You ? - You Are Love - Can’t Help Lovin’ Dat Man - Bill- Make Believe - Reprise: Old Man River.

Exact Audio Copy V0.99 prebeta 5 from 4. May 2009

EAC extraction logfile from 7. March 2011, 13:35

Various / Romantic Broadway

Used drive : HL-DT-STDVDRAM GH10N Adapter: 1 ID: 0

Read mode : Secure
Utilize accurate stream : Yes
Defeat audio cache : Yes
Make use of C2 pointers : No

Read offset correction : 667
Overread into Lead-In and Lead-Out : No
Fill up missing offset samples with silence : Yes
Delete leading and trailing silent blocks : No
Null samples used in CRC calculations : Yes
Used interface : Native Win32 interface for Win NT & 2000

Used output format : User Defined Encoder
Selected bitrate : 896 kBit/s
Quality : High
Add ID3 tag : No
Command line compressor : C:\Program Files\FLAC\flac.exe
Additional command line options : -V -5 -T "artist=%a" -T "title=%t" -T "album=%g" -T "date=%y" -T "tracknumber=%n" -T "genre=%m" -5 %s


TOC of the extracted CD

Track | Start | Length | Start sector | End sector
––––––––––––––––––––––––––––-
1 | 0:00.00 | 9:56.00 | 0 | 44699
2 | 9:56.00 | 6:30.00 | 44700 | 73949
3 | 16:26.00 | 10:32.00 | 73950 | 121349
4 | 26:58.00 | 10:39.00 | 121350 | 169274
5 | 37:37.00 | 10:02.00 | 169275 | 214424
6 | 47:39.00 | 7:44.00 | 214425 | 249224
7 | 55:23.00 | 11:03.50 | 249225 | 298999


Range status and errors

Selected range

Filename S:\EAC Rips\Romantic Broadway\Various - Romantic Broadway.wav

Peak level 100.0 %
Range quality 100.0 %
Test CRC 53A5B70D
Copy CRC 53A5B70D
Copy OK

No errors occurred


AccurateRip summary

Track 1 accurately ripped (confidence 1) [54C02D3E]
Track 2 not present in database
Track 3 accurately ripped (confidence 1) [492E323D]
Track 4 accurately ripped (confidence 1) [7A67D957]
Track 5 accurately ripped (confidence 1) [0F4D9679]
Track 6 accurately ripped (confidence 1) [9A5E807C]
Track 7 accurately ripped (confidence 1) [4D155AB0]

6 track(s) accurately ripped
1 track(s) not present in the AccurateRip database

Some tracks could not be verified as accurate

End of status report