Tags
Language
Tags
April 2024
Su Mo Tu We Th Fr Sa
31 1 2 3 4 5 6
7 8 9 10 11 12 13
14 15 16 17 18 19 20
21 22 23 24 25 26 27
28 29 30 1 2 3 4

Ron Carter - Finding the Right Notes (Original Motion Picture Soundtrack) (2022)

Posted By: delpotro
Ron Carter - Finding the Right Notes (Original Motion Picture Soundtrack) (2022)

Ron Carter - Finding the Right Notes (Original Motion Picture Soundtrack) (2022)
XLD Rip | FLAC (tracks+log+.cue) | 01:12:58 | 327 Mb
Jazz, Post-Bop | Label: IN+OUT Records

This special PBS soundtrack includes live recordings filmed at the Newport Jazz Festival for Ron's classic piece SOFT WINDS; a surprise bass duet session at The National Jazz Museum in Harlem with the enigmatic Christian McBride on WILLOW WEEP FOR ME; a session at the Blue Note with guitarist Bill Frisell on MY MAN'S GONE NOW; the first live performance of the two great bassists, Stanley Clarke and Ron playing BAG'S GROOVE, also at the Blue Note; and a joyful version of SWEET LORRAINE featuring Jon Batiste, released here for the first time.
Tracklist:
01. Receipt, Please
02. Soft Winds
03. Flamenco Scetches
04. Bag's Groove
05. Willow Weep for Me
06. Blues for D.P.
07. Doom Mood
08. My Man's Gone Now
09. A Nice Song
10. Sweet Lorraine

X Lossless Decoder version 20220917 (155.1)

XLD extraction logfile from 2022-11-20 23:15:39 -0800

Ron Carter / Finding the Right Notes

Used drive : HL-DT-ST DVDRAM GP60NB50 (revision RF01)
Media type : Pressed CD

Ripper mode : XLD Secure Ripper
Disable audio cache : OK for the drive with a cache less than 1375KiB
Make use of C2 pointers : NO
Read offset correction : 6
Max retry count : 20
Gap status : Analyzed, Appended (except HTOA)

TOC of the extracted CD
Track | Start | Length | Start sector | End sector
––––––––––––––––––––––––––––-
1 | 00:00:00 | 05:59:25 | 0 | 26949
2 | 05:59:25 | 07:28:63 | 26950 | 60612
3 | 13:28:13 | 06:13:48 | 60613 | 88635
4 | 19:41:61 | 08:27:29 | 88636 | 126689
5 | 28:09:15 | 07:23:03 | 126690 | 159917
6 | 35:32:18 | 09:42:37 | 159918 | 203604
7 | 45:14:55 | 07:49:18 | 203605 | 238797
8 | 53:03:73 | 06:21:50 | 238798 | 267422
9 | 59:25:48 | 07:25:69 | 267423 | 300866
10 | 66:51:42 | 06:06:47 | 300867 | 328363

AccurateRip Summary
Disc not found in AccurateRip DB.

All Tracks
Album gain : -0.90 dB
Peak : 0.901886
Statistics
Read error : 0
Jitter error (maybe fixed) : 0
Retry sector count : 0
Damaged sector count : 0

Track 01
Filename : /Volumes/El Segundo/Rips/Ron Carter - Finding the Right Notes (2022) [FLAC]/01 Receipt, Please.flac
Pre-gap length : 00:02:00

Track gain : -2.97 dB
Peak : 0.898407
CRC32 hash (test run) : 73230445
CRC32 hash : 73230445
CRC32 hash (skip zero) : 250B6A6F
AccurateRip v1 signature : 7D0D176F
AccurateRip v2 signature : CE1CFF86
->Track not present in AccurateRip database.
Statistics
Read error : 0
Jitter error (maybe fixed) : 0
Retry sector count : 0
Damaged sector count : 0

Track 02
Filename : /Volumes/El Segundo/Rips/Ron Carter - Finding the Right Notes (2022) [FLAC]/02 Soft Winds.flac
Pre-gap length : 00:01:00

Track gain : -0.66 dB
Peak : 0.528442
CRC32 hash (test run) : 56F3B5F6
CRC32 hash : 56F3B5F6
CRC32 hash (skip zero) : 76FBBEC9
AccurateRip v1 signature : 8C2E2EF0
AccurateRip v2 signature : 6351C299
->Track not present in AccurateRip database.
Statistics
Read error : 0
Jitter error (maybe fixed) : 0
Retry sector count : 0
Damaged sector count : 0

Track 03
Filename : /Volumes/El Segundo/Rips/Ron Carter - Finding the Right Notes (2022) [FLAC]/03 Flamenco Scetches.flac
Pre-gap length : 00:02:00

Track gain : -0.38 dB
Peak : 0.888947
CRC32 hash (test run) : 4C0DD241
CRC32 hash : 4C0DD241
CRC32 hash (skip zero) : 1B05E037
AccurateRip v1 signature : 16B36A27
AccurateRip v2 signature : 55FACF0D
->Track not present in AccurateRip database.
Statistics
Read error : 0
Jitter error (maybe fixed) : 0
Retry sector count : 0
Damaged sector count : 0

Track 04
Filename : /Volumes/El Segundo/Rips/Ron Carter - Finding the Right Notes (2022) [FLAC]/04 Bag's Groove.flac
Pre-gap length : 00:02:00

Track gain : -0.30 dB
Peak : 0.886322
CRC32 hash (test run) : DFBD0B2B
CRC32 hash : DFBD0B2B
CRC32 hash (skip zero) : 7EB117EF
AccurateRip v1 signature : C6F3A0EE
AccurateRip v2 signature : B6C3CB33
->Track not present in AccurateRip database.
Statistics
Read error : 0
Jitter error (maybe fixed) : 0
Retry sector count : 0
Damaged sector count : 0

Track 05
Filename : /Volumes/El Segundo/Rips/Ron Carter - Finding the Right Notes (2022) [FLAC]/05 Willow Weep for Me.flac
Pre-gap length : 00:02:00

Track gain : -2.02 dB
Peak : 0.884949
CRC32 hash (test run) : E39DC870
CRC32 hash : E39DC870
CRC32 hash (skip zero) : B362227F
AccurateRip v1 signature : FE8585BD
AccurateRip v2 signature : A556D1E9
->Track not present in AccurateRip database.
Statistics
Read error : 0
Jitter error (maybe fixed) : 0
Retry sector count : 0
Damaged sector count : 0

Track 06
Filename : /Volumes/El Segundo/Rips/Ron Carter - Finding the Right Notes (2022) [FLAC]/06 Blues for D.P..flac
Pre-gap length : 00:02:00

Track gain : -2.81 dB
Peak : 0.901886
CRC32 hash (test run) : CDBBC6CC
CRC32 hash : CDBBC6CC
CRC32 hash (skip zero) : 77B32A1C
AccurateRip v1 signature : 8D77D013
AccurateRip v2 signature : 91AFE09A
->Track not present in AccurateRip database.
Statistics
Read error : 0
Jitter error (maybe fixed) : 0
Retry sector count : 0
Damaged sector count : 0

Track 07
Filename : /Volumes/El Segundo/Rips/Ron Carter - Finding the Right Notes (2022) [FLAC]/07 Doom Mood.flac
Pre-gap length : 00:01:00

Track gain : 1.13 dB
Peak : 0.823334
CRC32 hash (test run) : B65BA152
CRC32 hash : B65BA152
CRC32 hash (skip zero) : 2E31B727
AccurateRip v1 signature : FB062E2C
AccurateRip v2 signature : EFDFAD1B
->Track not present in AccurateRip database.
Statistics
Read error : 0
Jitter error (maybe fixed) : 0
Retry sector count : 0
Damaged sector count : 0

Track 08
Filename : /Volumes/El Segundo/Rips/Ron Carter - Finding the Right Notes (2022) [FLAC]/08 My Man's Gone Now.flac
Pre-gap length : 00:01:00

Track gain : 0.06 dB
Peak : 0.805542
CRC32 hash (test run) : 1F7E0E51
CRC32 hash : 1F7E0E51
CRC32 hash (skip zero) : F929A545
AccurateRip v1 signature : 7E2C4230
AccurateRip v2 signature : 8E293157
->Track not present in AccurateRip database.
Statistics
Read error : 0
Jitter error (maybe fixed) : 0
Retry sector count : 0
Damaged sector count : 0

Track 09
Filename : /Volumes/El Segundo/Rips/Ron Carter - Finding the Right Notes (2022) [FLAC]/09 A Nice Song.flac
Pre-gap length : 00:02:00

Track gain : 1.74 dB
Peak : 0.885193
CRC32 hash (test run) : 183F2498
CRC32 hash : 183F2498
CRC32 hash (skip zero) : FDCCB150
AccurateRip v1 signature : 05731BA2
AccurateRip v2 signature : 752F71F7
->Track not present in AccurateRip database.
Statistics
Read error : 0
Jitter error (maybe fixed) : 0
Retry sector count : 0
Damaged sector count : 0

Track 10
Filename : /Volumes/El Segundo/Rips/Ron Carter - Finding the Right Notes (2022) [FLAC]/10 Sweet Lorraine.flac
Pre-gap length : 00:02:00

Track gain : 2.41 dB
Peak : 0.697235
CRC32 hash (test run) : E29AEB82
CRC32 hash : E29AEB82
CRC32 hash (skip zero) : E3CF0DF1
AccurateRip v1 signature : 6143953C
AccurateRip v2 signature : BC14612F
->Track not present in AccurateRip database.
Statistics
Read error : 0
Jitter error (maybe fixed) : 0
Retry sector count : 0
Damaged sector count : 0

No errors occurred

End of status report

––-BEGIN XLD SIGNATURE––-
EHRU1cgFhyNLu2xlRX1UF3q16hZfq.LKXnoLxmWRiJW0VTW9mZqppzAeFej0CSqV3Szcu34r7App9GJTjxZ9FaqgXdcIPvgdrsi3NLG
––-END XLD SIGNATURE––-

Thanks to the Original ripper !