Tags
Language
Tags

Ronald Brautigam - Mendelssohn: Lieder ohne Worte, Books 5-8 (2016)

Posted By:
Ronald Brautigam - Mendelssohn: Lieder ohne Worte, Books 5-8 (2016)

Ronald Brautigam - Mendelssohn: Lieder ohne Worte, Books 5-8 (2016)
EAC Rip | FLAC (image+.cue, log) ~ 241.51 Mb | 73:33 | Scans included
Classical, Piano | Label: BIS (BIS-SACD-1983)

Ronald Brautigam, piano During the early 19th century a number of composers began to write in new genres inspired by literature: Chopin's Ballades, Schumann's Novelletten and, later, Liszt's symphonic poems are all examples of this Romantic urge to create works that transcend the divide betweenFelix Mendelssohninvented a genre of his own, when he presented his sister Fanny with a 'song without words' for her birthday. He went on to compose a large number of such Lieder ohne Worte and published no less than six sets of six pieces each.

These became immensely popular with amateur and professional pianists, as well as with their respective audiences. Mendelssohn's death in 1847 did not affect the huge demand for the pieces, and the publisher Simrock soon issued another two sets, compiled from pieces that the composer had set aside for later publication. Mendelssohn himself supplied a few of the songs with more or less descriptive subtitles, but his aim was not to tell an existing story in music instead of words, but rather to communicate something that could only be conveyed through music. To Mendelssohn, music was more exact than language in his own words: 'the music I love expresses ideas that are not too vague to be captured in words, but on the contrary too precise. When Ronald Brautigam's recording of Books 1-4 was released in 2012, the reviewer in International Record Review wrote: One could scarcely hope for performances more vivid or poetic than these. This second volume includes the last four published sets of Lieder ohne Worte, as well as a number of other piano miniatures. Brautigam performs them on the same instrument as on the previous disc, a copy by Paul McNulty after a piano from 1830 by Ignaz Pleyel, preserved at Musée de la musique in Paris.

Track List:
[1]-[6] Sechs Lieder ohne Worte, Op. 62 (1844)
[7]-[12] Sechs Lieder ohne Worte, Op. 67 (1845)
[13]-[18] Sechs Lieder ohne Worte, Op. 85 (1850/51)
[19]-[24] Sechs Lieder ohne Worte, Op. 102 (1867/68)

Individual ‘Lieder ohne Worte’
[25] A major, Allegretto non troppo, ‘Gondellied’, MWV U 136 (1837)
[26] F major, ‘Ein Lied ohne Worte’, MWV U 150 (c. 1841)
[27] D major, Allegro assai, ‘Lied’, MWV U 178 (1843)
[28] D minor, Allegro vivace, ‘Reiter-Lied’, MWV U 187 (1846)
[29] E flat major, Allegro molto, ‘Lied’, MWV U 82

[30]-[35] Sechs Kinderstücke, Op. 72 (1847)

Aus dem Notenalbum für Eduard Benecke:
[36] E flat major, Andante, MWV U 165 (1842)
[37] F major, Sostenuto, MWV U 167 (1842)

Ronald Brautigam - Mendelssohn: Lieder ohne Worte, Books 5-8 (2016)


Exact Audio Copy V1.1 from 23. June 2015

EAC extraction logfile from 10. November 2016, 8:51

Ronald Brautigam / Mendelssohn - Lieder ohne Worte, Vol.2

Used drive : HL-DT-STDVDRAM GU70N Adapter: 1 ID: 0

Read mode : Secure
Utilize accurate stream : Yes
Defeat audio cache : Yes
Make use of C2 pointers : No

Read offset correction : 48
Overread into Lead-In and Lead-Out : No
Fill up missing offset samples with silence : Yes
Delete leading and trailing silent blocks : No
Null samples used in CRC calculations : Yes
Used interface : Native Win32 interface for Win NT & 2000

Used output format : User Defined Encoder
Selected bitrate : 128 kBit/s
Quality : High
Add ID3 tag : No
Command line compressor : C:\Program Files (x86)\Exact Audio Copy\Flac\flac.exe
Additional command line options : -V -8 -T "Date=%year%" -T "Genre=%genre%" %source%

TOC of the extracted CD

Track | Start | Length | Start sector | End sector
––––––––––––––––––––––––––––-
1 | 0:00.00 | 2:02.64 | 0 | 9213
2 | 2:02.64 | 1:45.58 | 9214 | 17146
3 | 3:48.47 | 2:50.44 | 17147 | 29940
4 | 6:39.16 | 1:32.44 | 29941 | 36884
5 | 8:11.60 | 2:07.47 | 36885 | 46456
6 | 10:19.32 | 2:11.47 | 46457 | 56328
7 | 12:31.04 | 2:34.37 | 56329 | 67915
8 | 15:05.41 | 1:44.44 | 67916 | 75759
9 | 16:50.10 | 2:30.11 | 75760 | 87020
10 | 19:20.21 | 1:46.31 | 87021 | 95001
11 | 21:06.52 | 2:13.70 | 95002 | 105046
12 | 23:20.47 | 2:12.57 | 105047 | 115003
13 | 25:33.29 | 2:35.09 | 115004 | 126637
14 | 28:08.38 | 0:59.58 | 126638 | 131120
15 | 29:08.21 | 2:12.35 | 131121 | 141055
16 | 31:20.56 | 2:32.48 | 141056 | 152503
17 | 33:53.29 | 1:54.28 | 152504 | 161081
18 | 35:47.57 | 1:55.39 | 161082 | 169745
19 | 37:43.21 | 2:54.23 | 169746 | 182818
20 | 40:37.44 | 2:18.42 | 182819 | 193210
21 | 42:56.11 | 1:19.68 | 193211 | 199203
22 | 44:16.04 | 2:05.61 | 199204 | 208639
23 | 46:21.65 | 1:08.55 | 208640 | 213794
24 | 47:30.45 | 1:51.45 | 213795 | 222164
25 | 49:22.15 | 1:53.35 | 222165 | 230674
26 | 51:15.50 | 2:01.23 | 230675 | 239772
27 | 53:16.73 | 2:28.15 | 239773 | 250887
28 | 55:45.13 | 1:38.12 | 250888 | 258249
29 | 57:23.25 | 2:46.43 | 258250 | 270742
30 | 60:09.68 | 1:08.23 | 270743 | 275865
31 | 61:18.16 | 1:50.06 | 275866 | 284121
32 | 63:08.22 | 0:57.53 | 284122 | 288449
33 | 64:06.00 | 1:25.15 | 288450 | 294839
34 | 65:31.15 | 1:49.70 | 294840 | 303084
35 | 67:21.10 | 1:29.73 | 303085 | 309832
36 | 68:51.08 | 1:51.49 | 309833 | 318206
37 | 70:42.57 | 2:50.21 | 318207 | 330977

Range status and errors

Selected range

Filename C:\temp\BIS-SACD-1983 - Mendelssohn - Lieder onhe Worte, Books 5-8\Mendelssohn - Lieder ohne Worte, Vol.2.wav

Peak level 97.3 %
Extraction speed 2.3 X
Range quality 100.0 %
Test CRC CAD21E04
Copy CRC CAD21E04
Copy OK

No errors occurred

AccurateRip summary

Track 1 accurately ripped (confidence 2) [5863E0F3] (AR v2)
Track 2 accurately ripped (confidence 2) [8F1D97BC] (AR v2)
Track 3 accurately ripped (confidence 2) [C4C2B1B6] (AR v2)
Track 4 accurately ripped (confidence 2) [3F9A205A] (AR v2)
Track 5 accurately ripped (confidence 2) [15A06648] (AR v2)
Track 6 accurately ripped (confidence 2) [E4D6FC80] (AR v2)
Track 7 accurately ripped (confidence 2) [B251D529] (AR v2)
Track 8 accurately ripped (confidence 2) [FAE1F759] (AR v2)
Track 9 accurately ripped (confidence 2) [7B68D1E6] (AR v2)
Track 10 accurately ripped (confidence 2) [89B8FBA3] (AR v2)
Track 11 accurately ripped (confidence 2) [57E67D14] (AR v2)
Track 12 accurately ripped (confidence 2) [6B5B9463] (AR v2)
Track 13 accurately ripped (confidence 2) [C16AAA8E] (AR v2)
Track 14 accurately ripped (confidence 2) [A1BA82EE] (AR v2)
Track 15 accurately ripped (confidence 2) [668E032C] (AR v2)
Track 16 accurately ripped (confidence 2) [8ECA3BB6] (AR v2)
Track 17 accurately ripped (confidence 2) [E20B7C40] (AR v2)
Track 18 accurately ripped (confidence 2) [0E9FBC83] (AR v2)
Track 19 accurately ripped (confidence 2) [29B90508] (AR v2)
Track 20 accurately ripped (confidence 2) [EEC7B04E] (AR v2)
Track 21 accurately ripped (confidence 2) [4C343AF2] (AR v2)
Track 22 accurately ripped (confidence 2) [7E623DB5] (AR v2)
Track 23 accurately ripped (confidence 2) [E8D11811] (AR v2)
Track 24 accurately ripped (confidence 2) [5D2CB5CA] (AR v2)
Track 25 accurately ripped (confidence 2) [68F0CEB6] (AR v2)
Track 26 accurately ripped (confidence 2) [DC11351E] (AR v2)
Track 27 accurately ripped (confidence 2) [CC77123B] (AR v2)
Track 28 accurately ripped (confidence 2) [0254ED75] (AR v2)
Track 29 accurately ripped (confidence 2) [0CDC8D94] (AR v2)
Track 30 accurately ripped (confidence 2) [A64F28ED] (AR v2)
Track 31 accurately ripped (confidence 2) [C3028BBD] (AR v2)
Track 32 accurately ripped (confidence 2) [5A7D67EE] (AR v2)
Track 33 accurately ripped (confidence 2) [14C3192D] (AR v2)
Track 34 accurately ripped (confidence 2) [79F0857E] (AR v2)
Track 35 accurately ripped (confidence 2) [41C9212B] (AR v2)
Track 36 accurately ripped (confidence 2) [78FBCC58] (AR v2)
Track 37 accurately ripped (confidence 2) [2DAA2E15] (AR v2)

All tracks accurately ripped

End of status report

==== Log checksum FDE027CA6F8C348109AC719054F59838CB3FD6A26CADE78741DB18F11839EF1E ====

All thanks go to the A-Z
More Music in My Blog
Follow My RSS Channel