Subcategories

Roy Orbison And Friends (a.o. Tom Waits) – A Black And White Night Live (1989)

Posted By: janwal46
Roy Orbison And Friends (a.o. Tom Waits) – A Black And White Night Live (1989)

Roy Orbison And Friends (a.o. Tom Waits) – A Black And White Night Live (1989)

Roy Orbison And Friends – A Black And White Night Live (1989)
Virgin Records | 1989 | Country Rock | EAC RIP | FLAC+CUE+LOG+HQ-Covers (400Dpi) | 409Mb+10Mb

This remarkable recording from September 1987, the only commercially released live album of Roy Orbison's career, is a source of great joy as well as comfort to this Roy Orbison fan. None of us knew that this recording which ushered in the second coming of rock music's most remarkable voice would soon also stand as a powerful tribute to a man who was to be taken from us far too soon. With the success of this remarkable live album and the posthumously released Mystery Girl, Roy Orbison went out on top, restored to the level of popularity and immense musical respect he deserved but had not enjoyed during the preceding couple of decades. Looking back on it now, the last sixteen months of Roy's life could hardly have been scripted any more fittingly.
Roy was not alone on the stage for these incredible Coconut Grove sessions. Around him were a number of superstars in their own right, each of them more than happy to play even a small part in what truly is a great tribute to one of music's undeniable legends. These included Bruce Springsteen (who once said he wished he could write like Bob Dylan and sing like Roy Orbison), T Bone Burnett, Elvis Costello, Tom Waits, Jackson Browne, K.D. Lang, and Bonnie Raitt. As for Roy, he was in stellar form. His voice may not have reflected the power of its youth, but every word from his throat came out mellifluously, and he proved he could still nail the high notes in songs such as Crying and Running Scared. His voice, to my ears, was incredible and simply ageless; he had not sounded so good in many, many years. As for the songs, they run the entire gamut of his career, from Move On Down the Line, the first song he ever wrote, to The Comedians and (All I Can Do Is) Dream You, two incredible tracks from the studio album that would turn out to be his last, Mystery Girl. Many of his classics are here. No one touched the human heart the way Roy did with classic ballads such as Only the Lonely, In Dreams, Leah, Crying, and Running Scared. Of course, one can also never forget such rocking classics as Dream Baby, Ooby Dooby, Mean Woman Blues, and Oh Pretty Woman. Then there is It's Over, perhaps the most moving song of Roy's career and easily my favorite. A Black and White Night Live is the ultimate tribute album to a legendary performer, and the fact that this is the only legitimate live recording of Orbison's career makes this album special beyond words. I still can't listen to this album without thinking about Roy's passing, but I am comforted at the same time with the knowledge that A Black and White Night Live is really and truly a glorious celebration of this legendary singer's life and career.

Personnel:

Roy Orbison - lead vocals, guitar, harmonica
Tom Waits - electric organ, acoustic guitar
Glen D. Hardin - piano
James Burton - lead guitar
Jerry Scheff - upright bass
Ronnie Tutt - drums
Jackson Browne - backing vocals
T Bone Burnett - acoustic guitar
Elvis Costello - acoustic guitar, electric organ
k.d. lang - backing vocals
Bonnie Raitt - backing vocals
J.D. Souther - backing vocals
Steven Soles - backing vocals
Bruce Springsteen - guitar, vocals
Jennifer Warnes - backing vocals

Tracklist:

01. Only the Lonely
02. Dream Baby (How Long Must I Dream)
03. Blue Bayou
04. The Comedians
05. Ooby Dooby
06. Leah
07. Running Scared
08. Uptown
09. In Dreams
10. Crying
11. Candyman
12. Go, Go, Go (Down The Line)
13. Mean Woman Blues
14. (All I Can Do Is) Dream You
15. Claudette
16. It s Over
17. Oh, Pretty Woman

Produced by T Bone Burnett
Recorded by Record Plant Mobile
Engineered by Richard "Rik" Pekkonen
Mastered by Bernie Grundman

Sound Quality: 8/9

Exact Audio Copy V0.99 prebeta 5 from 4. May 2009

EAC extraction logfile from 24. December 2009, 23:59

Roy Orbison / A Black And White Night Live

Used drive : _NEC DVD_RW ND-3520A Adapter: 1 ID: 1

Read mode : Secure
Utilize accurate stream : Yes
Defeat audio cache : Yes
Make use of C2 pointers : No

Read offset correction : 48
Overread into Lead-In and Lead-Out : No
Fill up missing offset samples with silence : Yes
Delete leading and trailing silent blocks : No
Null samples used in CRC calculations : No
Used interface : Native Win32 interface for Win NT & 2000

Used output format : Internal WAV Routines
Sample format : 44.100 Hz; 16 Bit; Stereo


TOC of the extracted CD

Track | Start | Length | Start sector | End sector
––––––––––––––––––––––––––––-
1 | 0:00.33 | 2:43.40 | 33 | 12297
2 | 2:43.73 | 3:09.35 | 12298 | 26507
3 | 5:53.33 | 3:49.67 | 26508 | 43749
4 | 9:43.25 | 2:59.35 | 43750 | 57209
5 | 12:42.60 | 5:12.43 | 57210 | 80652
6 | 17:55.28 | 3:08.15 | 80653 | 94767
7 | 21:03.43 | 3:06.57 | 94768 | 108774
8 | 24:10.25 | 2:30.55 | 108775 | 120079
9 | 26:41.05 | 3:11.08 | 120080 | 134412
10 | 29:52.13 | 3:33.40 | 134413 | 150427
11 | 33:25.53 | 3:19.52 | 150428 | 165404
12 | 36:45.30 | 4:11.00 | 165405 | 184229
13 | 40:56.30 | 3:36.63 | 184230 | 200492
14 | 44:33.18 | 3:25.50 | 200493 | 215917
15 | 47:58.68 | 3:12.70 | 215918 | 230387
16 | 51:11.63 | 6:20.45 | 230388 | 258932


Range status and errors

Selected range

Filename F:\AVAXHOME\Roy Orbison - A Black And White Night Live (1989)\Roy Orbison - A Black And White Night Live.wav

Peak Level 96.5 %
Range Quality 99.9 %
Copy CRC 64E10F9D
Copy OK

No errors occurred


AccurateRip summary

Track 1 accurately ripped (confidence 15) [945A4422]
Track 2 accurately ripped (confidence 15) [F997DC16]
Track 3 accurately ripped (confidence 15) [BD7D66C9]
Track 4 accurately ripped (confidence 15) [15BD99E6]
Track 5 accurately ripped (confidence 14) [0C2B1826]
Track 6 accurately ripped (confidence 15) [0845D3A3]
Track 7 accurately ripped (confidence 14) [79FD79FA]
Track 8 accurately ripped (confidence 14) [247E9376]
Track 9 accurately ripped (confidence 15) [C9A03E31]
Track 10 accurately ripped (confidence 14) [5554CB62]
Track 11 accurately ripped (confidence 15) [52BC0BA2]
Track 12 accurately ripped (confidence 15) [D477E464]
Track 13 accurately ripped (confidence 15) [9E913FB6]
Track 14 accurately ripped (confidence 15) [2CF30093]
Track 15 accurately ripped (confidence 15) [99234A4A]
Track 16 accurately ripped (confidence 15) [2D56C959]

All tracks accurately ripped

End of status report

RIPPED BY JANWAL46

RS Links:



In case you encounter dead links in any of my posts, please send me a private message !!!!


Password: janwal46

Say thanks, but please, no mirrors and/or direct links in your comments !!!!
Roy Orbison And Friends (a.o. Tom Waits) – A Black And White Night Live (1989)