Subcategories

Franz Schreker - BOB, Blunier - Irrelohe, Opera In 3 Acts (2011, MDG "Live" # 937 1687-6) {Hybrid-SACD // EAC Rip} [RE-UP]

Posted By: luckburz
Franz Schreker - BOB, Blunier - Irrelohe, Opera In 3 Acts (2011, MDG "Live" # 937 1687-6) {Hybrid-SACD // EAC Rip} [RE-UP]

Franz Schreker - Irrelohe, Opera In 3 Acts
Beethoven Orchester Bonn / Stefan Blunier / Chor und Extrachor des Theater Bonn
EAC+LOG+CUE | FLAC: 500 MB | Full Artwork | 5% Recovery Info
Label/Cat#: MDG "Live" # 937 1687-6 | Country/Year: Germany 2011
Genre: Classical | Style: Opera, Late Romantic

MD5 [X] CUE [X] LOG [X] INFO TEXT [X] ARTWORK [X]

my rip [X] not my rip [ ]

Franz Schreker - BOB, Blunier - Irrelohe, Opera In 3 Acts (2011, MDG "Live" # 937 1687-6) {Hybrid-SACD // EAC Rip} [RE-UP]


Exact Audio Copy V1.0 beta 3 from 29. August 2011

EAC extraction logfile from 11. October 2012, 9:51

Beethoven Orchester Bonn - Stefan Blunier / Schreker: Irrelohe Act I

Used drive : PIONEER BD-RW BDR-206 Adapter: 0 ID: 2

Read mode : Secure
Utilize accurate stream : Yes
Defeat audio cache : Yes
Make use of C2 pointers : No

Read offset correction : 667
Overread into Lead-In and Lead-Out : No
Fill up missing offset samples with silence : Yes
Delete leading and trailing silent blocks : No
Null samples used in CRC calculations : Yes
Used interface : Native Win32 interface for Win NT & 2000

Used output format : User Defined Encoder
Selected bitrate : 1024 kBit/s
Quality : High
Add ID3 tag : Yes
Command line compressor : C:\Program Files\FLAC\flac.exe
Additional command line options : -5 -T "Artist=%artist%" -T "Title=%title%" -T "Album=%albumtitle%" -T "Date=%year%" -T "Tracknumber=%tracknr%" -T "Genre=%genre%" %source% -o %dest%


TOC of the extracted CD

Track | Start | Length | Start sector | End sector
––––––––––––––––––––––––––––-
1 | 0:00.00 | 5:23.24 | 0 | 24248
2 | 5:23.24 | 11:18.12 | 24249 | 75110
3 | 16:41.36 | 10:26.62 | 75111 | 122122
4 | 27:08.23 | 7:54.10 | 122123 | 157682
5 | 35:02.33 | 5:33.41 | 157683 | 182698


Range status and errors

Selected range

Filename F:\=== VINYL RIPS ===\=== EAC===\X FRESH RIP\Schreker- BOB, Blunier - Irrelohe Act I.wav

Peak level 88.8 %
Extraction speed 6.8 X
Range quality 100.0 %
Test CRC 1B917882
Copy CRC 1B917882
Copy OK

No errors occurred


AccurateRip summary

Track 1 not present in database
Track 2 not present in database
Track 3 not present in database
Track 4 not present in database
Track 5 not present in database

None of the tracks are present in the AccurateRip database

End of status report

–– CUETools DB Plugin V2.1.3

[CTDB TOCID: n5DDaUShCO0XscjqU.vMeheFRdU-] disk not present in database, Submit result: n5DDaUShCO0XscjqU.vMeheFRdU- has been uploaded


==== Log checksum FD0E2B7F4048290376EE6AAE94B1DA157F1A5E5373AE4775A786E75DF32D6A43 ====

Exact Audio Copy V1.0 beta 3 from 29. August 2011

EAC extraction logfile from 11. October 2012, 11:42

Unbekannter Künstler / Schreker: Irrelohe Act II

Used drive : PIONEER BD-RW BDR-206 Adapter: 0 ID: 2

Read mode : Secure
Utilize accurate stream : Yes
Defeat audio cache : Yes
Make use of C2 pointers : No

Read offset correction : 667
Overread into Lead-In and Lead-Out : No
Fill up missing offset samples with silence : Yes
Delete leading and trailing silent blocks : No
Null samples used in CRC calculations : Yes
Used interface : Native Win32 interface for Win NT & 2000

Used output format : User Defined Encoder
Selected bitrate : 1024 kBit/s
Quality : High
Add ID3 tag : Yes
Command line compressor : C:\Program Files\FLAC\flac.exe
Additional command line options : -5 -T "Artist=%artist%" -T "Title=%title%" -T "Album=%albumtitle%" -T "Date=%year%" -T "Tracknumber=%tracknr%" -T "Genre=%genre%" %source% -o %dest%


TOC of the extracted CD

Track | Start | Length | Start sector | End sector
––––––––––––––––––––––––––––-
1 | 0:00.00 | 6:07.33 | 0 | 27557
2 | 6:07.33 | 2:17.59 | 27558 | 37891
3 | 8:25.17 | 2:49.38 | 37892 | 50604
4 | 11:14.55 | 9:22.45 | 50605 | 92799
5 | 20:37.25 | 3:07.72 | 92800 | 106896
6 | 23:45.22 | 17:19.17 | 106897 | 184838
7 | 41:04.39 | 4:47.49 | 184839 | 206412


Range status and errors

Selected range

Filename F:\=== VINYL RIPS ===\=== EAC===\X FRESH RIP\Schreker- BOB, Blunier - Irrelohe Act II.wav

Peak level 100.0 %
Extraction speed 1.7 X
Range quality 100.0 %
Test CRC 8F9F23A2
Copy CRC 8F9F23A2
Copy OK

No errors occurred


AccurateRip summary

Track 1 not present in database
Track 2 not present in database
Track 3 not present in database
Track 4 not present in database
Track 5 not present in database
Track 6 not present in database
Track 7 not present in database

None of the tracks are present in the AccurateRip database

End of status report

–– CUETools DB Plugin V2.1.3

[CTDB TOCID: Jy6itktihnDEjAW6hbV7yAnAv2c-] disk not present in database, Submit result: Jy6itktihnDEjAW6hbV7yAnAv2c- has been uploaded


==== Log checksum 5E759BB53C082CE54509243744055B240CEFDB6C875BF4B759983D2087ABCE44 ====

Exact Audio Copy V1.0 beta 3 from 29. August 2011

EAC extraction logfile from 11. October 2012, 11:56

Beethoven Orchester Bonn - Stefan Blunier / Schreker: Irrelohe Act III

Used drive : PIONEER BD-RW BDR-206 Adapter: 0 ID: 2

Read mode : Secure
Utilize accurate stream : Yes
Defeat audio cache : Yes
Make use of C2 pointers : No

Read offset correction : 667
Overread into Lead-In and Lead-Out : No
Fill up missing offset samples with silence : Yes
Delete leading and trailing silent blocks : No
Null samples used in CRC calculations : Yes
Used interface : Native Win32 interface for Win NT & 2000

Used output format : User Defined Encoder
Selected bitrate : 1024 kBit/s
Quality : High
Add ID3 tag : Yes
Command line compressor : C:\Program Files\FLAC\flac.exe
Additional command line options : -5 -T "Artist=%artist%" -T "Title=%title%" -T "Album=%albumtitle%" -T "Date=%year%" -T "Tracknumber=%tracknr%" -T "Genre=%genre%" %source% -o %dest%


TOC of the extracted CD

Track | Start | Length | Start sector | End sector
––––––––––––––––––––––––––––-
1 | 0:00.00 | 7:11.37 | 0 | 32361
2 | 7:11.37 | 11:01.07 | 32362 | 81943
3 | 18:12.44 | 2:36.15 | 81944 | 93658
4 | 20:48.59 | 5:21.22 | 93659 | 117755
5 | 26:10.06 | 9:52.27 | 117756 | 162182
6 | 36:02.33 | 5:15.09 | 162183 | 185816


Range status and errors

Selected range

Filename F:\=== VINYL RIPS ===\=== EAC===\X FRESH RIP\Schreker- BOB, Blunier - Irrelohe Act III.wav

Peak level 97.7 %
Extraction speed 6.8 X
Range quality 100.0 %
Test CRC 32F63227
Copy CRC 32F63227
Copy OK

No errors occurred


AccurateRip summary

Track 1 not present in database
Track 2 not present in database
Track 3 not present in database
Track 4 not present in database
Track 5 not present in database
Track 6 not present in database

None of the tracks are present in the AccurateRip database

End of status report

–– CUETools DB Plugin V2.1.3

[CTDB TOCID: jiiSZOUcj36Wf39.Qd2JAEaVMbk-] disk not present in database, Submit result: jiiSZOUcj36Wf39.Qd2JAEaVMbk- has been uploaded


==== Log checksum 755135636535CE1CD757A67C2B3A362E5A2E90FC736B4745966375D501A60259 ====

foobar2000 1.1.11 / Dynamic Range Meter 1.1.1
log date: 2012-10-11 09:15:33

––––––––––––––––––––––––––––––––––––––––
Analyzed: ? / ?
––––––––––––––––––––––––––––––––––––––––

DR Peak RMS Duration Track
––––––––––––––––––––––––––––––––––––––––
DR15 -8.71 dB -31.90 dB 5:23 ?-Roman Sadnik, Ingeborg Greiner, Daniela Denschlag, Mark Mor - Irrelohe - Oper in drei Aufzugen von Franz Schreker - SACD
DR17 -7.04 dB -33.26 dB 11:18 ?-Roman Sadnik, Ingeborg Greiner, Daniela Denschlag, Mark Mor - Irrelohe - Oper in drei Aufzugen von Franz Schreker - SACD
DR15 -7.75 dB -31.38 dB 10:27 ?-Roman Sadnik, Ingeborg Greiner, Daniela Denschlag, Mark Mor - Irrelohe - Oper in drei Aufzugen von Franz Schreker - SACD
DR15 -9.50 dB -32.48 dB 7:54 ?-Roman Sadnik, Ingeborg Greiner, Daniela Denschlag, Mark Mor - Irrelohe - Oper in drei Aufzugen von Franz Schreker - SACD
DR14 -10.83 dB -32.27 dB 5:34 ?-Roman Sadnik, Ingeborg Greiner, Daniela Denschlag, Mark Mor - Irrelohe - Oper in drei Aufzugen von Franz Schreker - SACD
––––––––––––––––––––––––––––––––––––––––

Number of tracks: 5
Official DR value: DR15

Samplerate: 2822400 Hz / PCM Samplerate: 176400 Hz
Channels: 2
Bits per sample: 24
Bitrate: 5645 kbps
Codec: DSD64
================================================================================


foobar2000 1.1.11 / Dynamic Range Meter 1.1.1
log date: 2012-10-11 10:07:33

––––––––––––––––––––––––––––––––––––––––
Analyzed: ? / ?
––––––––––––––––––––––––––––––––––––––––

DR Peak RMS Duration Track
––––––––––––––––––––––––––––––––––––––––
DR16 -6.90 dB -31.57 dB 6:07 ?-Roman Sadnik, Ingeborg Greiner, Daniela Denschlag, Mark Mor - Irrelohe - Oper in drei Aufzugen von Franz Schreker - SACD
DR13 -6.00 dB -32.29 dB 2:18 ?-Roman Sadnik, Ingeborg Greiner, Daniela Denschlag, Mark Mor - Irrelohe - Oper in drei Aufzugen von Franz Schreker - SACD
DR13 -10.18 dB -30.05 dB 2:50 ?-Roman Sadnik, Ingeborg Greiner, Daniela Denschlag, Mark Mor - Irrelohe - Oper in drei Aufzugen von Franz Schreker - SACD
DR16 -10.34 dB -34.10 dB 9:23 ?-Roman Sadnik, Ingeborg Greiner, Daniela Denschlag, Mark Mor - Irrelohe - Oper in drei Aufzugen von Franz Schreker - SACD
DR15 -13.46 dB -33.67 dB 3:08 ?-Roman Sadnik, Ingeborg Greiner, Daniela Denschlag, Mark Mor - Irrelohe - Oper in drei Aufzugen von Franz Schreker - SACD
DR17 -5.99 dB -31.56 dB 17:19 ?-Roman Sadnik, Ingeborg Greiner, Daniela Denschlag, Mark Mor - Irrelohe - Oper in drei Aufzugen von Franz Schreker - SACD
DR14 -6.17 dB -27.32 dB 4:48 ?-Roman Sadnik, Ingeborg Greiner, Daniela Denschlag, Mark Mor - Irrelohe - Oper in drei Aufzugen von Franz Schreker - SACD
––––––––––––––––––––––––––––––––––––––––

Number of tracks: 7
Official DR value: DR15

Samplerate: 2822400 Hz / PCM Samplerate: 176400 Hz
Channels: 2
Bits per sample: 24
Bitrate: 5645 kbps
Codec: DSD64
================================================================================


foobar2000 1.1.11 / Dynamic Range Meter 1.1.1
log date: 2012-10-11 12:30:27

––––––––––––––––––––––––––––––––––––––––
Analyzed: ? / ?
––––––––––––––––––––––––––––––––––––––––

DR Peak RMS Duration Track
––––––––––––––––––––––––––––––––––––––––
DR14 -15.30 dB -38.21 dB 7:11 ?-Roman Sadnik, Ingeborg Greiner, Daniela Denschlag, Mark Mor - Irrelohe - Oper in drei Aufzugen von Franz Schreker - SACD
DR16 -11.00 dB -33.27 dB 11:01 ?-Roman Sadnik, Ingeborg Greiner, Daniela Denschlag, Mark Mor - Irrelohe - Oper in drei Aufzugen von Franz Schreker - SACD
DR14 -11.25 dB -33.21 dB 2:36 ?-Roman Sadnik, Ingeborg Greiner, Daniela Denschlag, Mark Mor - Irrelohe - Oper in drei Aufzugen von Franz Schreker - SACD
DR14 -7.42 dB -27.16 dB 5:21 ?-Roman Sadnik, Ingeborg Greiner, Daniela Denschlag, Mark Mor - Irrelohe - Oper in drei Aufzugen von Franz Schreker - SACD
DR15 -6.31 dB -27.22 dB 9:52 ?-Roman Sadnik, Ingeborg Greiner, Daniela Denschlag, Mark Mor - Irrelohe - Oper in drei Aufzugen von Franz Schreker - SACD
DR14 -6.81 dB -29.24 dB 5:15 ?-Roman Sadnik, Ingeborg Greiner, Daniela Denschlag, Mark Mor - Irrelohe - Oper in drei Aufzugen von Franz Schreker - SACD
––––––––––––––––––––––––––––––––––––––––

Number of tracks: 6
Official DR value: DR14

Samplerate: 2822400 Hz / PCM Samplerate: 176400 Hz
Channels: 2
Bits per sample: 24
Bitrate: 5645 kbps
Codec: DSD64
================================================================================



CD Info:

Franz Schreker - Irrelohe, Opera In 3 Acts

Beethoven Orchester Bonn / Stefan Blunier / Chor und Extrachor des Theater Bonn

Label: MDG
Series: Live
Catalog#: 937 1687-6
Format: 3x Hybrid-SACD, Album, Stereo, Multichannel
Country: Germany
Released: 2011
Genre: Classical
Style: Opera

Tracklist:

1 - I. Akt - Vorspiel 5:23
2 - I. Akt - I. Szene 11:18
3 - I. Akt - II. Szene 10:27
4 - I. Akt - III. Szene 7:54
5 - I. Akt - V. Szene 5:34

1 - II. Akt - I. Szene 6:07
2 - II. Akt - III. Szene 2:18
3 - II. Akt - IV. Szene 2:50
4 - II. Akt - V. Szene 9:23
5 - II. Akt - VI. Szene 3:08
6 - II. Akt - VIII. Szene 17:19
7 - II. Akt - IX. Szene 4:48

1 - III. Akt - I. Szene 7:11
2 - III. Akt - III. Szene 11:01
3 - III. Akt - IV. Szene 2:36
4 - III. Akt - VII. Szene 5:21
5 - III. Akt - X. Szene 9:52
6 - III. Akt - XII. Szene 5:15

Recording: November, 2-3, 5, 7, 2010, Theater Bonn
Tonmeister: Friedrich Wilhelm Rödding

Franz Schreker - BOB, Blunier - Irrelohe, Opera In 3 Acts (2011, MDG "Live" # 937 1687-6) {Hybrid-SACD // EAC Rip} [RE-UP]


Franz Schreker (originally Schrecker, March 23, 1878 – March 21, 1934) was an Austrian composer, conductor, teacher and administrator. Primarily a composer of operas, his style is characterized by aesthetic plurality (a mixture of Romanticism, Naturalism, Symbolism, Impressionism, Expressionism and Neue Sachlichkeit), timbral experimentation, strategies of extended tonality and conception of total music theatre into the narrative of 20th-century music.

The opera was first performed on 27 March 1924 at the Stadttheater Köln, conducted by Otto Klemperer. Productions in a further seven cities followed (including Stuttgart, Frankfurt and Leipzig), but critical response was mixed and, together with changing audience tastes and the complexity of the score, the work failed to maintain its place in the repertoire.

The first production in modern times was at the Bielefeld Opera in 1985. The work was also staged at the Vienna Volksoper in 2004 and at the Bonn Opera in 2010. Wikipedia

The operas of Franz Schreker (1874-1934), composed during the early years of the 20th century and once as popular as those of Richard Strauss, quickly disappeared from the musical scene. This was not only due to the composer’s death in 1934, but also the rise of National Socialism in Germany. The latter precipitated the composer’s dismissal from his teaching post at the Hochschule für Musik in Berlin in 1932, and probably also contributed Schrecker’s early demise from a stroke. Thanks to his Jewish heritage, Schreker’s compositions were characterised as ‘Entartete Musik’ (degenerate music) by the Nazis and his music like that of his near contemporaries, Zemlinsky, and Korngold and many other non -Aryan composers, were banned.

In recent years, however, there has been a welcome if somewhat fitful re-kindling of interest in Schreker’s music. A number of the composer’s nine operas have been recorded and also received stagings, predominantly but not exclusively in Europe. These include ‘Der ferne Klang’ (1910), ‘Die Gezeichneten (1915), ‘Der Schatzgräber (1918) and ‘Irrelohe’ - premiered in 1924 in Cologne and conducted by Otto Klemperer.

The music of the earlier operas mentioned above is characterised by lush harmonies and opulent orchestration - a heady mix of Puccini, Richard Strauss and the impressionism of Debussy. In ‘Irrelohe’ Schreker moves to a much more chromatic and contrapuntal style spiced with a little dissonance, and this is just one of the reasons why the opera was not well received by audiences and critics in 1924. Falling between two stools, the music was too decadent for progressives and too harmonically adventurous for conservatives. The orchestral forces involved are exceptionally lavish. In addition to a large compliment of strings, wind and brass there is a percussion section that includes two sets of timpani, three anvils, glockenspiel and xylophone. An on-stage orchestra consisting of two piccolos, two clarinets, six horns, three trumpets, percussion, bells and organ completes the line-up.

The complex Gothic plot involving rape, madness and murder is typical of Schrecker’s febrile imagination and, for those attuned to late-romantic and expressionist opera, the work’s blend of blatant eroticism and verismo excess make for an intoxicating aural experience.
Schreker is a master at creating atmosphere and much of the finest music in the opera is to be found in the many long orchestral passages in each of the three acts. The glittering and iridescent orchestral colours constantly beguile the ear while the ‘sehnsucht’ of the ecstatic vocal lines in the Act 2 scene between Eva and Heinrich echo Wagner’s Tristan und Isolde.

This MDG recording stems from recent live performances given at Theater Bonn (November 2-3,5,7, 2010) where the current Generalintendant Klaus Wiese seems to be spearheading a fresh revival of Schrecker’s stage works - a new production of ‘Der ferne Klang’ is scheduled for the 2011/12 Season. The performance by the Bonn company is very fine indeed. The opera’s two main protagonists are thrillingly sung by Ingeborg Greiner (Eva) and Roman Sadnik (Heinrich) who cope valiantly with their demanding roles, and Mark Rosenthal makes a most effective Christobald. The many lesser roles are also well sung. The playing of the Beethoven Orchestra Bonn under Stefan Blunier is magnificently full blooded and finely etched. Blumier relishes the score’s sumptuous textures yet, in spite of Schrecker’s heavy orchestration, he manages to keep instrumental lines clear.

Two small caveats to this set must be mentioned. First the 75-page booklet included with the discs contains a proselytising essay on the work by Janine Ortiz, biographies of the singers and an Act by Act synopsis of the story, but - and it is very big but - a libretto in German only. Unless you are a fluent German reader the action will often be difficult to follow thanks, not least, to the opera’s labyrinthine plot. Secondly, each of the opera’s three Acts is allotted a separate disc. This does obviate the problem of choosing a suitable break (the Sony two-disc CD set from 1995 was particularly unfortunate in that respect), but it does also have a cost implication – three full-price discs instead of two for an opera lasting 127’ 50”.

The vivid MDG recording is slightly distanced, so the volume needs to be increased considerably for its fine qualities to become evident. Balances between voices and orchestra are excellent, and for those listening in multi-channel the surround speakers have been used to great effect for the off-stage brass, distant bells and chorus in the Act 3 cataclysmic immolation of Irrelohe castle. There is no applause or audience noise but the movement of singers on the stage is clearly defined with very few extraneous sounds being captured by the microphones.

This is latest addition to the Schrecker discography will be welcomed by all admirers of the composer and can be confidently recommended.

Copyright © 2011 Graham Williams and SA-CD.net
Franz Schreker - BOB, Blunier - Irrelohe, Opera In 3 Acts (2011, MDG "Live" # 937 1687-6) {Hybrid-SACD // EAC Rip} [RE-UP]

Franz Schreker - BOB, Blunier - Irrelohe, Opera In 3 Acts (2011, MDG "Live" # 937 1687-6) {Hybrid-SACD // EAC Rip} [RE-UP]


all of my uploads in my blog




Composer:

Johann Sebastian Bach
Bach- Calefax Reed Quintet - Die Kunst der Fuge BWV 1080 (2000)
Bach- Collegium Cartusianum - ...ersion II, 1725) (2000) [2xCD]
Bach- Musica Alta Ripa - Solo Concertos Vol. 1-4 (1996-1999) [4xCD]

Woldemar Bargiel
Bargiel- Trio Parnassus - Complete Piano Trios Vol. 1 (1998)

Ludwig van Beethoven
Beethoven- Trio Parnassus - Co...s Vol. 1-5 (1994, 2001) [5xCD]
Beethoven- Ochester der Beetho..., aka 'Fidelio') (1998) [2xCD]
BeethovenQuartett - Beethoven:... 2 First Version (2010) [SACD]
BeethovenQuartett - Beethoven:...p; 2 First Version (2010) [CD]
Beethoven - BOB / Blunier - Symphonies No. 1 & 5 (2012) [SACD]
Beethoven - BOB / Blunier - Symphonies No. 1 & 5 (2012) [CD]

Frantisek Benda
Benda- Konrad Hünteler - Conce...ings and Basso Continuo (1996)

Oskar Gottlieb Blarr
Blarr- Neandersinfonietta - Je...hnachtsoratorium (1992) [2xCD]

Luigi Boccherini
Boccherini- Flieder-Trio - String Trios op.14 (1990)

Oskar Böhme
Brandt / Böhme- Wolfgang Bauer - Music for Trumpet (2009) [SACD]
Brandt / Böhme- Wolfgang Bauer - Music for Trumpet (2009) [CD]

Mel Bonis
Bonis- Mozart Piano Quartet - Complete Piano Quartets (2007)

Marco Enrico Bossi
Bossi- Maija Lehtonen - Complete Organ Works Vol. 1 (1994)

Johannes Brahms
Brahms- Hardy Rittner - Early Piano Works Vol.1 (2008) [CD]
Brahms- Hardy Rittner - Early Piano Works Vol.2 (2008) [SACD]
Brahms- Hardy Rittner - Early Piano Works Vol.2 (2008) [CD]
Mozart Piano Quartet- Schumann / Brahms - Piano Quartets (2011)

Vassily/Willy Brandt
Brandt / Böhme- Wolfgang Bauer - Music for Trumpet (2009) [SACD]
Brandt / Böhme- Wolfgang Bauer - Music for Trumpet (2009) [CD]

Anton Bruckner
Bruckner- BOB / Blunier - Symp... 3 Pieces, March (2011) [SACD]
Bruckner- BOB / Blunier - Symp...;, 3 Pieces, March (2011) [CD]
Bruckner- BOB / Blunier - Symp...8 (Version 1890) (2011) [SACD]
Bruckner- BOB / Blunier - Symp...108 (Version 1890) (2011) [CD]

Ferruccio Busoni
Busoni- Claudius Tanski - Klavierwerke (1992)

Dietrich Buxtehude
Buxtehude - Harald Vogel - Complete Organ Works [7CD BOX] (2007)

John Cage
Cage- Steffen Schleiermacher -...e Prepared Piano [3xCD] (1997)

Antonio Casimir Cartellieri
Cartellieri- Klöcker, PCO - Concertos for Clarinet (1996)

Mario Castelnuovo-Tedesco
Castelnuovo-Tedesco- Bungarten...s de Goya para Guitarra (1996)

Frederic Chopin
Chopin- Hardy Rittner - Complete Etudes (2012) [SACD]
Chopin- Hardy Rittner - Complete Etudes (2012) [CD]

Heinz Chur
Heinz Chur - Noriko Kitano-Klein - Piano Sonatas 6-8 (1994)

Eugen D'Albert
D'Albert- BOB / Blunier - Der Golem: Opera in 3 Acts (2010)

Claude Debussy
Claude Debussy & Maurice R...ster der BHB / Soustrot (2002)

Michael Denhoff
Michael Denhoff - Player Piano... Tradition of Nancarrow (2009)

Felix Draeseke
Draeseke- Claudius Tanski / Wu....1 & Piano Concerto (1999)

Marcel Dupre
Dupré- Ben van Oosten - Organ Works Vol. 01 (1999)
Dupré- Ben van Oosten - Organ Works Vol. 02 (2001)
Dupré- Ben van Oosten - Organ Works Vol. 03 (2001)
Dupré- Ben van Oosten - Organ Works Vol. 04 (2002)
Dupré- Ben van Oosten - Organ Works Vol. 05 (2003)
Dupré- Ben van Oosten - Organ Works Vol. 06 (2004)
Dupré- Ben van Oosten - Organ Works Vol. 07 (2005)
Dupré- Ben van Oosten - Organ Works Vol. 08 (2007)
Dupré- Ben van Oosten - Organ Works Vol. 09 (2008)
Dupré- Ben van Oosten - Organ Works Vol. 10 (2008)

Antonin Dvorak
Dvorak- BOB / Firmbach / Honic...wir fahren nach Amerika (2010)
Dvorak- Leipziger Streichquart...Quintets op.81 & 97 (2004)

Morton Feldman
Morton Feldman - Steffen Schle...Late Piano Works Vol. 1 (2008)
Morton Feldman - Steffen Schle...Late Piano Works Vol. 2 (2009)
Morton Feldman - Steffen Schle...Late Piano Works Vol. 3 (2009)

Jean Francaix
Jean Francaix - Bläserquintett...ure du Berger (Sextett) (1993)

Alexander Glazunov
Alexander Glazunov - Utrecht S... Quartets No. 3 & 5 (2004)

Benjamin Godard
Benjamin Godard - Trio Parnassus - Complete Piano Trios (2010)

Christoph Willibald Gluck
Christoph Willibald Gluck - Il...n 3 acts, Wq. 31 (1763) (2012)

Friedrich Hartmann Graf
Friedrich Hartmann Graf - Hünt...et - Six Flute Quartets (1994)

Christoph Graupner
Christoph Graupner - Nova Stra...Orchestral Works Vol. 1 (2002)
Christoph Graupner - Nova Stra...Orchestral Works Vol. 2 (2004)
Christoph Graupner - Nova Stra...Orchestral Works Vol. 3 (2010)

Georg Friedrich Händel
George Frideric Handel - Colle...Neumann - Saul [HWV 53] (1998)
George Frideric Handel - Colle...n - Belshazzar [HWV 61] (2001)

Adolph Henselt
Adolph Henselt - Claudius Tanski - Piano Trio, Duo, Variations (2000)

Hans Werner Henze
Hans Werner Henze - Magdeburg ...mplete Violin Concertos (2005)

Paul Hindemith
Paul Hindemith - Ensemble Vill...et (2009) [CD]
________________

NITROFLARE

Music Pt. 1 | Music Pt. 2 | Music Pt. 3

Artwork

________________