Tags
Language
Tags

Serge Lazarevitch, Nicolas Thys, Teun Verbruggen - Free Three (2016)

Posted By: SuniR
Serge Lazarevitch, Nicolas Thys, Teun Verbruggen - Free Three (2016)

Serge Lazarevitch, Nicolas Thys, Teun Verbruggen - Free Three (2016)
EAC | FLAC (log,tracks+cue) -> 279 Mb (5% Rec.) | Mp3 CBR320 Kbps -> 131 Mb (5% Rec.) | Scans -> 25 Mb
Jazz, Improvisation | Label: Igloo Records, IGL 266 | 2016 | 0:54:43

“Free Three” brings together three key musicians from the Belgian jazz scene. Serge Lazarevitch, Nicolas Thys and Teun Verbruggen share the same musical tastes and cross stylistic borders to explore the moving landscapes of jazz and improvisation.

"Let's just play what we feel, what we like… What we feel like playing…"?This phrase perfectly sums up the musical spark that ignited Serge, Nicolas and Teun from their first concerts together and which naturally grew during the recording sessions.

From Francois Couperin to Ornette Coleman and not forgetting Thelonius Monk, Lee Konitz or Gyorgy Ligeti, their repertoire is constantly recycling. There are original compositions and themes borrowed from traditional music, all of which open the door to their improvised conversations and soundscapes.

Eight joint compositions and eight from guitarist Nic Thys from a total of seventeen, mostly composed as miniatures of under three minutes that travel through soundscapes that the guitarist loves and are known to the others. The aptly-named “One More Time” opens the album in a folk mood, whereas “Mid Life Crisis” and “Time to Wake Up” have a rock vibe. “Cats in the Garden” echoes the inspiration and style of Bill Frisell in his trio with Tony Scherr and Kenny Wollesen. “One for Snowden” bursts into free improvisation. The Thys-composed “Long Island City” has a Thelonian feel. The soothing “It Should Have Been a Normal Day” pays homage to the victims of the Paris attacks in January and November 2015, whereas “See You Later” makes me unmistakably think of the harmonic variations of Pierre Van Dormael. This wide range of climates does not affect the cohesion of this brilliant album on which the musicians’ inspiration is always present. The superb natural sound and elegance of the protagonists sets the tone throughout the seventeen pieces. (Jean-Pierre Goffin)

Tracklist:

01. One More Time 01:16
02. Mid Life Crisis 02:01
03. Cats In The Garden 04:31
04. One For Snowden 02:36
05. Keep Dancing in D 02:54
06. Through The Red Sands 02:45
07. Long Island City 03:51
08. Drifting & Diving 02:12
09. Until Then (Le Jour D'Après) 04:48
10. Rush Hour 01:36
11. Carla, Bill & Charlie 05:22
12. Strumming in C 03:28
13. Factory Dreams 02:06
14. Time To Wake Up 02:20
15. It Should Have Been A Normal Day (in memory) 01:48
16. See You Later 06:27
17. Conversation with Rosetta 04:36

Musicians:
Serge Lazarevitch - Guitar
Nicolas Thys Double - Bass
Teun Verbruggen - Drums


Exact Audio Copy V1.3 from 2. September 2016

EAC extraction logfile from 9. April 2017, 11:13

Lazarevitch Thys Verbruggen / Free Three

Used drive : ATAPI iHBS112 2 Adapter: 1 ID: 1

Read mode : Secure
Utilize accurate stream : Yes
Defeat audio cache : Yes
Make use of C2 pointers : No

Read offset correction : 6
Overread into Lead-In and Lead-Out : No
Fill up missing offset samples with silence : Yes
Delete leading and trailing silent blocks : No
Null samples used in CRC calculations : Yes
Used interface : Native Win32 interface for Win NT & 2000
Gap handling : Appended to previous track

Used output format : User Defined Encoder
Selected bitrate : 128 kBit/s
Quality : High
Add ID3 tag : No
Command line compressor : C:\Program Files (x86)\Exact Audio Copy\Flac\flac.exe
Additional command line options : -8 -V -T "ARTIST=%artist%" -T "TITLE=%title%" -T "ALBUM=%albumtitle%" -T "DATE=%year%" -T "TRACKNUMBER=%tracknr%" -T "GENRE=%genre%" -T "PERFORMER=%albuminterpret%" -T "COMPOSER=%composer%" -T "ALBUMARTIST=%albumartist%" -T "DISCNUMBER=%cdnumber%" -T "TOTALDISCS=%totalcds%" -T "TOTALTRACKS=%numtracks%" -T "COMMENT=EAC Secure Mode, Test & Copy, AccurateRip, FLAC -8" %source% -o %dest%


TOC of the extracted CD

Track | Start | Length | Start sector | End sector
––––––––––––––––––––––––––––-
1 | 0:00.00 | 1:16.27 | 0 | 5726
2 | 1:16.27 | 2:01.22 | 5727 | 14823
3 | 3:17.49 | 4:31.62 | 14824 | 35210
4 | 7:49.36 | 2:36.00 | 35211 | 46910
5 | 10:25.36 | 2:54.65 | 46911 | 60025
6 | 13:20.26 | 2:45.23 | 60026 | 72423
7 | 16:05.49 | 3:51.54 | 72424 | 89802
8 | 19:57.28 | 2:12.19 | 89803 | 99721
9 | 22:09.47 | 4:48.20 | 99722 | 121341
10 | 26:57.67 | 1:36.36 | 121342 | 128577
11 | 28:34.28 | 5:22.21 | 128578 | 152748
12 | 33:56.49 | 3:28.26 | 152749 | 168374
13 | 37:25.00 | 2:06.00 | 168375 | 177824
14 | 39:31.00 | 2:20.42 | 177825 | 188366
15 | 41:51.42 | 1:48.20 | 188367 | 196486
16 | 43:39.62 | 6:27.52 | 196487 | 225563
17 | 50:07.39 | 4:36.61 | 225564 | 246324


Track 1

Filename H:\DL\Lazarevitch Thys Verbruggen - Free Three (2016) [FLAC]\01 - One More Time.wav

Pre-gap length 0:00:02.00

Peak level 81.5 %
Extraction speed 1.9 X
Track quality 99.8 %
Test CRC B9120098
Copy CRC B9120098
Accurately ripped (confidence 1) [C02211C8] (AR v2)
Copy OK

Track 2

Filename H:\DL\Lazarevitch Thys Verbruggen - Free Three (2016) [FLAC]\02 - Mid Life Crisis.wav

Peak level 98.2 %
Extraction speed 3.1 X
Track quality 100.0 %
Test CRC DE14DBD1
Copy CRC DE14DBD1
Accurately ripped (confidence 1) [40B601F1] (AR v2)
Copy OK

Track 3

Filename H:\DL\Lazarevitch Thys Verbruggen - Free Three (2016) [FLAC]\03 - Cats In The Garden.wav

Peak level 98.2 %
Extraction speed 3.9 X
Track quality 100.0 %
Test CRC F85DC6EC
Copy CRC F85DC6EC
Accurately ripped (confidence 1) [AC5D9F47] (AR v2)
Copy OK

Track 4

Filename H:\DL\Lazarevitch Thys Verbruggen - Free Three (2016) [FLAC]\04 - One For Snowden.wav

Peak level 98.2 %
Extraction speed 3.3 X
Track quality 99.9 %
Test CRC C2508AE0
Copy CRC C2508AE0
Accurately ripped (confidence 1) [576D3177] (AR v2)
Copy OK

Track 5

Filename H:\DL\Lazarevitch Thys Verbruggen - Free Three (2016) [FLAC]\05 - Keep Dancing in D.wav

Peak level 98.2 %
Extraction speed 4.1 X
Track quality 100.0 %
Test CRC 5B8A0385
Copy CRC 5B8A0385
Accurately ripped (confidence 1) [1CE5F2CF] (AR v2)
Copy OK

Track 6

Filename H:\DL\Lazarevitch Thys Verbruggen - Free Three (2016) [FLAC]\06 - Through The Red Sands.wav

Peak level 98.2 %
Extraction speed 3.7 X
Track quality 99.9 %
Test CRC C5A65D51
Copy CRC C5A65D51
Accurately ripped (confidence 1) [667A1DE3] (AR v2)
Copy OK

Track 7

Filename H:\DL\Lazarevitch Thys Verbruggen - Free Three (2016) [FLAC]\07 - Long Island City.wav

Peak level 98.2 %
Extraction speed 4.2 X
Track quality 99.9 %
Test CRC 1F5DDAE1
Copy CRC 1F5DDAE1
Accurately ripped (confidence 1) [F269AEBD] (AR v2)
Copy OK

Track 8

Filename H:\DL\Lazarevitch Thys Verbruggen - Free Three (2016) [FLAC]\08 - Drifting & Diving.wav

Peak level 98.2 %
Extraction speed 4.5 X
Track quality 100.0 %
Test CRC BCB66273
Copy CRC BCB66273
Accurately ripped (confidence 1) [67BEA828] (AR v2)
Copy OK

Track 9

Filename H:\DL\Lazarevitch Thys Verbruggen - Free Three (2016) [FLAC]\09 - Until Then-Le Jour D'Apres.wav

Peak level 98.2 %
Extraction speed 5.3 X
Track quality 100.0 %
Test CRC DB03750D
Copy CRC DB03750D
Accurately ripped (confidence 1) [AFF28BBC] (AR v2)
Copy OK

Track 10

Filename H:\DL\Lazarevitch Thys Verbruggen - Free Three (2016) [FLAC]\10 - Rush Hour.wav

Peak level 98.2 %
Extraction speed 4.4 X
Track quality 100.0 %
Test CRC 6AB10E84
Copy CRC 6AB10E84
Accurately ripped (confidence 1) [B1EEE57C] (AR v2)
Copy OK

Track 11

Filename H:\DL\Lazarevitch Thys Verbruggen - Free Three (2016) [FLAC]\11 - Carla, Bill & Charlie.wav

Peak level 98.2 %
Extraction speed 5.8 X
Track quality 100.0 %
Test CRC 26FA70CE
Copy CRC 26FA70CE
Accurately ripped (confidence 1) [0970415E] (AR v2)
Copy OK

Track 12

Filename H:\DL\Lazarevitch Thys Verbruggen - Free Three (2016) [FLAC]\12 - Strumming in C.wav

Peak level 98.2 %
Extraction speed 5.7 X
Track quality 100.0 %
Test CRC 2C2209C6
Copy CRC 2C2209C6
Accurately ripped (confidence 1) [9981E631] (AR v2)
Copy OK

Track 13

Filename H:\DL\Lazarevitch Thys Verbruggen - Free Three (2016) [FLAC]\13 - Factory Dreams.wav

Peak level 98.2 %
Extraction speed 5.4 X
Track quality 100.0 %
Test CRC 70385E75
Copy CRC 70385E75
Accurately ripped (confidence 1) [5704275D] (AR v2)
Copy OK

Track 14

Filename H:\DL\Lazarevitch Thys Verbruggen - Free Three (2016) [FLAC]\14 - Time To Wake Up.wav

Peak level 98.2 %
Extraction speed 5.6 X
Track quality 100.0 %
Test CRC B58A6012
Copy CRC B58A6012
Accurately ripped (confidence 1) [1D2F6447] (AR v2)
Copy OK

Track 15

Filename H:\DL\Lazarevitch Thys Verbruggen - Free Three (2016) [FLAC]\15 - It Should Have Been A Normal Day (in memory).wav

Peak level 98.2 %
Extraction speed 5.3 X
Track quality 100.0 %
Test CRC 3F7B359F
Copy CRC 3F7B359F
Accurately ripped (confidence 1) [B29BBAFF] (AR v2)
Copy OK

Track 16

Filename H:\DL\Lazarevitch Thys Verbruggen - Free Three (2016) [FLAC]\16 - See You Later.wav

Peak level 98.2 %
Extraction speed 6.8 X
Track quality 100.0 %
Test CRC 6C96EA8F
Copy CRC 6C96EA8F
Accurately ripped (confidence 1) [7AC95769] (AR v2)
Copy OK

Track 17

Filename H:\DL\Lazarevitch Thys Verbruggen - Free Three (2016) [FLAC]\17 - Conversation with Rosetta.wav

Peak level 98.2 %
Extraction speed 6.8 X
Track quality 100.0 %
Test CRC 3019EA25
Copy CRC 3019EA25
Accurately ripped (confidence 1) [13F06F4C] (AR v2)
Copy OK


All tracks accurately ripped

No errors occurred

End of status report

–– CUETools DB Plugin V2.1.6

[CTDB TOCID: Y6uhl4SaLeblCa8XmKzpck_mOlc-] found
Submit result: Y6uhl4SaLeblCa8XmKzpck_mOlc- has been confirmed
Track | CTDB Status
1 | (1/1) Accurately ripped
2 | (1/1) Accurately ripped
3 | (1/1) Accurately ripped
4 | (1/1) Accurately ripped
5 | (1/1) Accurately ripped
6 | (1/1) Accurately ripped
7 | (1/1) Accurately ripped
8 | (1/1) Accurately ripped
9 | (1/1) Accurately ripped
10 | (1/1) Accurately ripped
11 | (1/1) Accurately ripped
12 | (1/1) Accurately ripped
13 | (1/1) Accurately ripped
14 | (1/1) Accurately ripped
15 | (1/1) Accurately ripped
16 | (1/1) Accurately ripped
17 | (1/1) Accurately ripped


==== Log checksum 9AC2E02A51A5CEB9BD9709ADB091CDFCB11C80B3C5F3E1E9F6B4D79621236CEC ====

foobar2000 1.3.6 / Dynamic Range Meter 1.1.1
log date: 2017-04-09 13:17:08

––––––––––––––––––––––––––––––––––––––––
Analyzed: Lazarevitch Thys Verbruggen / Free Three
––––––––––––––––––––––––––––––––––––––––

DR Peak RMS Duration Track
––––––––––––––––––––––––––––––––––––––––
DR10 -1.77 dB -16.59 dB 1:16 01-One More Time
DR10 -0.15 dB -12.54 dB 2:01 02-Mid Life Crisis
DR10 -0.15 dB -13.14 dB 4:32 03-Cats In The Garden
DR11 -0.15 dB -14.38 dB 2:36 04-One For Snowden
DR9 -0.15 dB -12.03 dB 2:55 05-Keep Dancing in D
DR9 -0.15 dB -12.27 dB 2:45 06-Through The Red Sands
DR9 -0.15 dB -11.78 dB 3:52 07-Long Island City
DR14 -0.15 dB -19.40 dB 2:12 08-Drifting & Diving
DR11 -0.15 dB -14.79 dB 4:48 09-Until Then-Le Jour D'Après
DR10 -0.15 dB -12.51 dB 1:36 10-Rush Hour
DR12 -0.15 dB -15.79 dB 5:22 11-Carla, Bill & Charlie
DR10 -0.15 dB -13.89 dB 3:28 12-Strumming in C
DR11 -0.15 dB -15.65 dB 2:06 13-Factory Dreams
DR11 -0.15 dB -12.91 dB 2:21 14-Time To Wake Up
DR13 -0.15 dB -16.70 dB 1:48 15-It Should Have Been A Normal Day (in memory)
DR10 -0.15 dB -13.27 dB 6:28 16-See You Later
DR13 -0.15 dB -19.08 dB 4:37 17-Conversation with Rosetta
––––––––––––––––––––––––––––––––––––––––

Number of tracks: 17
Official DR value: DR11

Samplerate: 44100 Hz
Channels: 2
Bits per sample: 16
Bitrate: 632 kbps
Codec: FLAC
================================================================================

Thanks to the original releaser