Subcategories

The Brian Setzer Orchestra - Vavoom! (2000)

Posted By: Rehabilly
The Brian Setzer Orchestra - Vavoom! (2000)

The Brian Setzer Orchestra - Vavoom!
WV+CUE+LOG+Covers or MP3 CBR 320 | 43:26 min | 318 or 99 MB

Although the swing movement had cooled down considerably by the time VAVOOM! was released, Brian Setzer and his merry band of swingin' sidemen were still committed to this irresistible and infectious style of music. For their fourth album, Brian Setzer and his Orchestra add modern nuances to their sound and along the way give Glenn Miller a big band makeover. Female back-up singers, hip-hop beats and loops are used to good effect on "Pennsylvania 6-5000" while lyrics and a new title ("Getting' in the Mood") are added to one of Miller's most famous instrumental classics ("In the Mood"). Otherwise, it's business as usual for this rad hep cat as he mixes original jump blues on "Jukebox", surf in "Drive Like Lightning (Crash Like Thunder)", and rockabilly on "49 Mercury Blues", with some more straightforward covers. Tribute is inescapable as Setzer plays it close to the vest with interpretations of Bobby Darin ("Mack the Knife"), Duke Ellington ("Caravan" - won the 2001 Grammy Award for Best Pop Instrumental Performance), and the Cadillacs ("Gloria").
Tracklist:

01. Pennsylvania 6-5000
02. Jumpin' East Of Java
03. Americano
04. If You Can't Rock Me
05. Gettin' In The Mood
06. Drive Like Lightning (Crash Like Thunder)
07. Mack The Knife
08. Caravan
09. Footloose Doll
10. From Here To Eternity
11. That's The Kind Of Sugar Papa Likes
12. '49 Mercury Blues
13. Jukebox
14. Gloria

Exact Audio Copy V0.99 prebeta 5 from 4. May 2009

EAC extraction logfile from 7. June 2009, 15:52

The Brian Setzer Orchestra / Vavoom!

Used drive : PLEXTOR CD-R PREMIUM2 Adapter: 1 ID: 1

Read mode : Secure
Utilize accurate stream : Yes
Defeat audio cache : Yes
Make use of C2 pointers : No

Read offset correction : 30
Overread into Lead-In and Lead-Out : Yes
Fill up missing offset samples with silence : Yes
Delete leading and trailing silent blocks : No
Null samples used in CRC calculations : Yes
Used interface : Installed external ASPI interface

Used output format : Internal WAV Routines
Sample format : 44.100 Hz; 16 Bit; Stereo


TOC of the extracted CD

Track | Start | Length | Start sector | End sector
––––––––––––––––––––––––––––-
1 | 0:00.00 | 3:04.42 | 0 | 13841
2 | 3:04.42 | 3:02.50 | 13842 | 27541
3 | 6:07.17 | 3:02.35 | 27542 | 41226
4 | 9:09.52 | 2:39.33 | 41227 | 53184
5 | 11:49.10 | 3:11.27 | 53185 | 67536
6 | 15:00.37 | 4:11.60 | 67537 | 86421
7 | 19:12.22 | 2:48.00 | 86422 | 99021
8 | 22:00.22 | 2:25.43 | 99022 | 109939
9 | 24:25.65 | 3:52.40 | 109940 | 127379
10 | 28:18.30 | 2:53.67 | 127380 | 140421
11 | 31:12.22 | 2:19.20 | 140422 | 150866
12 | 33:31.42 | 2:50.60 | 150867 | 163676
13 | 36:22.27 | 3:10.65 | 163677 | 177991
14 | 39:33.17 | 3:52.33 | 177992 | 195424


Range status and errors

Selected range

Filename C:\200\BSO -2000- Vavoom!\The Brian Setzer Orchestra - Vavoom!.wav

Peak level 100.0 %
Range quality 100.0 %
Copy CRC 762E81D5
Copy OK

No errors occurred


AccurateRip summary

Track 1 accurately ripped (confidence 12) [7419B62E]
Track 2 accurately ripped (confidence 12) [83600B22]
Track 3 accurately ripped (confidence 12) [1069FF08]
Track 4 accurately ripped (confidence 12) [16670A11]
Track 5 accurately ripped (confidence 13) [C69DDE75]
Track 6 accurately ripped (confidence 12) [EFF49CBA]
Track 7 accurately ripped (confidence 12) [3DE6FD64]
Track 8 accurately ripped (confidence 12) [87ED15FE]
Track 9 accurately ripped (confidence 12) [7E7D281E]
Track 10 accurately ripped (confidence 12) [D5E80473]
Track 11 accurately ripped (confidence 12) [73B516EC]
Track 12 accurately ripped (confidence 12) [5673DF19]
Track 13 accurately ripped (confidence 12) [133B0B5B]
Track 14 accurately ripped (confidence 12) [BE5302DF]

All tracks accurately ripped

End of status report

Producers: Peter Collins, David Darling & Glen Ballard.
Recorded at Conway Studios, Hollywood, California and Village West Recorder, West Los Angeles, CA

Brian Setzer Orchestra: Brian Setzer (vocals, guitar); Ray Herrmann, Tim Misica, Don Roberts, Jim Youngstrom, Matt Zebley (saxophone); Will Murillo, Kevin Norton, Kye Palmer, Kevin Richardson (trumpet); Robbie Hioki, George McMullen, Scot Ray (trombone); Tony Garnier (bass); Bernie Dresel (drums)
Additional personnel includes: Ernie Perez (vocals); Eric Morones (saxophone); Maxi Anderson, Julia Waters, Maxine Waters, Siedah Garrett, Mike Himmelstein, Dave Bassett, Carmen Twillie, Bobbi Page, Andrea Robinson (background vocals).

Release Date: August 1, 2000
Label: Interscope Records
Catalog No.: 490 733-2