Tags
Language
Tags

Sheryl Crow - Home For Christmas (2008)

Posted By:
Sheryl Crow - Home For Christmas (2008)

Sheryl Crow - Home For Christmas (2008)
EAC Rip | FLAC (image+.cue, log) ~ 232.63 Mb | 41:33 | Cover
Pop, Holiday | Country: USA | Label: EU A&M Records

Originally released as a Hallmark exclusive for the holiday season of 2008, Home for Christmas was expanded by a single cut for its exclusive 2010 for Target: “Long Road Home,” taken from Sheryl Crow’s fine 2010 tribute to Southern soul, 100 Miles from Memphis. This may be a secular tune, but it fits snugly next to the rest of Home for Christmas, as that holiday record was designed as a slow, soulful stroll through seasonal classics, Crow turning in excellent versions of tunes as diverse as “Go Tell It on the Mountain,” “The Christmas Song (Chestnuts Roasting on an Open Fire),” and “I’ll Be Home for Christmas.” Crow doesn’t necessarily reinvent these songs – “Merry Christmas Baby” is taken at a slightly faster gait than usual, “White Christmas” grooves like classic Stax – but she does inhabit them and her band is tight and dexterous, giving this Christmas album some unexpected and welcome soul. It’s a good enough holiday album that it shouldn’t be thought of as a thrown-off exclusive: it’s one of the better pop Christmas records of the last half of the 2000s. ~ AllMusic Review by Stephen Thomas Erlewine



Track List:
01. Go Tell It On The Mountain
02. The Christmas Song
03. White Christmas
04. I'll Be Home For Christmas
05. Merry Christmas, Baby
06. The Bells Of St.Mary's
07. Blue Christmas
08. O Holy Night
09. There Is A Star That Shines Tonight
10. Hello My Friend, Hello
11. All Through The Night

Exact Audio Copy V0.99 prebeta 3 from 28. July 2007

EAC extraction logfile from 29. December 2008, 20:52

Sheryl Crow / Home For Christmas

Used drive : PIONEER DVD-RW DVR-215D Adapter: 1 ID: 1

Read mode : Secure
Utilize accurate stream : Yes
Defeat audio cache : Yes
Make use of C2 pointers : No

Read offset correction : 48
Overread into Lead-In and Lead-Out : No
Fill up missing offset samples with silence : Yes
Delete leading and trailing silent blocks : No
Null samples used in CRC calculations : Yes
Used interface : Installed external ASPI interface

Used output format : User Defined Encoder
Selected bitrate : 768 kBit/s
Quality : High
Add ID3 tag : No
Command line compressor : C:\Program Files\Exact Audio Copy\FLAC\FLAC.EXE
Additional command line options : -6 -V -T "ARTIST=%a" -T "TITLE=%t" -T "ALBUM=%g" -T "DATE=%y" -T "TRACKNUMBER=%n" -T "GENRE=%m" -T "COMMENT=%e" %s -o %d


TOC of the extracted CD

Track | Start | Length | Start sector | End sector
––––––––––––––––––––––––––––-
1 | 0:00.00 | 3:08.25 | 0 | 14124
2 | 3:08.25 | 3:23.32 | 14125 | 29381
3 | 6:31.57 | 3:31.53 | 29382 | 45259
4 | 10:03.35 | 3:42.09 | 45260 | 61918
5 | 13:45.44 | 3:15.56 | 61919 | 76599
6 | 17:01.25 | 4:33.13 | 76600 | 97087
7 | 21:34.38 | 3:24.71 | 97088 | 112458
8 | 24:59.34 | 3:40.23 | 112459 | 128981
9 | 28:39.57 | 3:59.42 | 128982 | 146948
10 | 32:39.24 | 3:41.22 | 146949 | 163545
11 | 36:20.46 | 5:13.26 | 163546 | 187046


Range status and errors

Selected range

Filename H:\Torrent\Complete\SherylCrowHFC\Sheryl Crow - Home For Christmas.wav

Peak level 99.7 %
Range quality 100.0 %
Test CRC 27CD3A94
Copy CRC 27CD3A94
Copy OK

No errors occurred


AccurateRip summary

Track 1 not present in database
Track 2 not present in database
Track 3 not present in database
Track 4 not present in database
Track 5 not present in database
Track 6 not present in database
Track 7 not present in database
Track 8 not present in database
Track 9 not present in database
Track 10 not present in database
Track 11 not present in database

None of the tracks are present in the AccurateRip database

End of status report

All thanks go to the stickt

More Music in My Blog
Follow My RSS Channel