Subcategories

Silent Circle - No. 1 [Deluxe Edition] (2017)

Posted By: El Misha
Silent Circle - No. 1 [Deluxe Edition] (2017)

Silent Circle - No. 1 [Deluxe Edition] (2017)
EAC Rip | FLAC (image & cue & log) -> 560 MB | Full Artwork @ (jpg, 300 dpi) | 01:19:58
Genre: Disco, Eurodisco | Label: Deluxe CD Music ‎– DCD012

Silent Circle is a German Eurodisco band that was formed in 1985. It has three members, vocalist Martin Tychsen (Jo Jo Tyson), keyboardist & composer Axel Breitung, and drummer Jürgen Behrens (CC Behrens). Silent Circle first performed in 1979 but soon parted ways. In the early '80s, the trio reformed and decided to form a more solid group. Hence, that marked the beginning of Silent Circle.



Tracklist:

01. Touch In The Night (5:17)
02. Sib Dab Dua (3:04)
03. Dreams (4:00)
04. Hide Away - Man Is Comin'! (3:42)
05. Shy Girl (3:37)
06. Stop The Rain In The Night (3:39)
07. For You (1:32)
08. Give Me Time (3:57)
09. Moonlight Affair (3:29)
10. Anywhere Tonight (3:18)
11. Love Is Just a Word (3:20)

12 INCH VERSIONS
12. Touch In The Night (Crash Version) (5:31)
13. Hide Away - Man Is Comin'! (Special Mix) (5:06)
14. Time For Love (Super Action Mix) (5:25)
15. Stop The Rain (No Rain Mix) (5:34)
16. Love Is Just A Word (Reggae Version) (5:40)

7 INCH VERSIONS
17. Touch In The Night (3:40)
18. Time For Love (3:20)

INSTRUMENTAL VERSIONS
19. Hide Away - Man Is Comin'! (3:40)
20. Touch In The Night (3:00)

Exact Audio Copy V1.0 beta 1 from 15. November 2010

EAC extraction logfile from 16. June 2020, 16:28

Silent Circle / No.1 (Deluxe Edition)

Used drive : PIONEER DVD-RW DVR-215 Adapter: 1 ID: 0

Read mode : Secure
Utilize accurate stream : Yes
Defeat audio cache : Yes
Make use of C2 pointers : No

Read offset correction : 48
Overread into Lead-In and Lead-Out : No
Fill up missing offset samples with silence : Yes
Delete leading and trailing silent blocks : No
Null samples used in CRC calculations : Yes
Used interface : Native Win32 interface for Win NT & 2000

Used output format : User Defined Encoder
Selected bitrate : 1024 kBit/s
Quality : High
Add ID3 tag : No
Command line compressor : G:\PROGRAMY\EAC\Exact Audio Copy\FLAC\flac.exe
Additional command line options : -6 -V -T "ARTIST=%a" -T "TITLE=%t" -T "ALBUM=%g" -T "DATE=%y" -T "TRACKNUMBER=%n" -T "GENRE=%m" -T "COMMENT=EAC FLAC -6" %s


TOC of the extracted CD

Track | Start | Length | Start sector | End sector
––––––––––––––––––––––––––––-
1 | 0:00.00 | 5:17.15 | 0 | 23789
2 | 5:17.15 | 3:04.05 | 23790 | 37594
3 | 8:21.20 | 4:00.28 | 37595 | 55622
4 | 12:21.48 | 3:42.12 | 55623 | 72284
5 | 16:03.60 | 3:37.07 | 72285 | 88566
6 | 19:40.67 | 3:39.11 | 88567 | 105002
7 | 23:20.03 | 1:32.64 | 105003 | 111966
8 | 24:52.67 | 3:57.14 | 111967 | 129755
9 | 28:50.06 | 3:29.05 | 129756 | 145435
10 | 32:19.11 | 3:18.12 | 145436 | 160297
11 | 35:37.23 | 3:20.14 | 160298 | 175311
12 | 38:57.37 | 5:31.46 | 175312 | 200182
13 | 44:29.08 | 5:06.39 | 200183 | 223171
14 | 49:35.47 | 5:25.61 | 223172 | 247607
15 | 55:01.33 | 5:34.18 | 247608 | 272675
16 | 60:35.51 | 5:40.74 | 272676 | 298249
17 | 66:16.50 | 3:40.22 | 298250 | 314771
18 | 69:56.72 | 3:20.02 | 314772 | 329773
19 | 73:16.74 | 3:40.58 | 329774 | 346331
20 | 76:57.57 | 3:00.18 | 346332 | 359849


Range status and errors

Selected range

Filename H:\Music\Silent Circle - No.1 (Deluxe Edition) (2017)\Silent Circle - No.1 (Deluxe Edition).wav

Peak level 96.7 %
Extraction speed 0.3 X
Range quality 99.9 %
Test CRC 9396E8AD
Copy CRC 9396E8AD
Copy OK

No errors occurred


AccurateRip summary

Track 1 accurately ripped (confidence 5) [03B9127A]
Track 2 accurately ripped (confidence 5) [EC9CD8E3]
Track 3 accurately ripped (confidence 5) [B8A454E0]
Track 4 accurately ripped (confidence 5) [B1F4792B]
Track 5 accurately ripped (confidence 5) [F445FDF7]
Track 6 accurately ripped (confidence 5) [440A446B]
Track 7 accurately ripped (confidence 5) [726BB14D]
Track 8 accurately ripped (confidence 5) [D369AFC3]
Track 9 accurately ripped (confidence 5) [B2126768]
Track 10 accurately ripped (confidence 5) [8C594931]
Track 11 accurately ripped (confidence 5) [31DD08C9]
Track 12 accurately ripped (confidence 5) [E14F1989]
Track 13 accurately ripped (confidence 5) [D91AE9D9]
Track 14 accurately ripped (confidence 5) [658C8913]
Track 15 accurately ripped (confidence 5) [6CA121F1]
Track 16 accurately ripped (confidence 5) [A3C396F6]
Track 17 accurately ripped (confidence 5) [C1DC64A0]
Track 18 accurately ripped (confidence 5) [D1E2EAAB]
Track 19 accurately ripped (confidence 5) [F15EDED4]
Track 20 accurately ripped (confidence 5) [E5CF50F2]

All tracks accurately ripped

End of status report

==== Log checksum 8EBD203193300BAFB10593D36FD04F512E96EE6960EA7F30E86E3C165CF0C8C0 ====




All thanks to original releaser!