Subcategories

Siouxsie And The Banshees – The Best Of Siouxsie And The Banshees (2002) (2xCD)

Posted By: muddboogers
Siouxsie And The Banshees – The Best Of Siouxsie And The Banshees (2002) (2xCD)

Siouxsie And The Banshees – The Best Of Siouxsie And The Banshees (2002) (2xCD)
EAC | FLAC Image with CUE & LOG | 122:00 mins | Scans | RAR 3% Recovery | 392+425 MB
Alternative Rock / Goth Rock | 2002 Geffen Records #440 065 150-2

The Best of Siouxsie and the Banshees is a decent look into the eclectic world of Siouxsie Sioux. The band, however, really didn't need to release another hits collection. Once Upon a Time: The Singles (1981) and Twice Upon a Time: The Singles (1992) are comprehensive enough to stand alone. Universal aimed to make this a stylish set with glossy favorites such as "Dear Prudence," "Peek-a-Boo," and "Spellbound," but lesser-known classics like "Candy Man" and "Dazzle" are missing. It would have made more sense to release a live collection from the band's 2002 reunion tour, or show highlights from the early days, but a second disc of rare remixes makes up for a less-than-impressive first disc. "Song From the Edge of the World (Columbus Mix)" rumbles with dark, lush percussion, as does "The Killing Jar (Lepidopteristic Mix)" and "Dazzle (The Glamour Mix)," all of which make for a divine, intoxicating collection. Longtime fans should be impressed by the remix portion of the album. So add it to the Siouxsie discography. ~ MacKenzie Wilson, allmusic.com
The Best Of Siouxsie And The Banshees @ Discogs

Tracklist CD1:
1. Dear Prudence
2. Hong Kong Garden
3. Cities In Dust
4. Peek-A-Boo
5. Happy House
6. Kiss Them For Me
7. Face To Face
8. Dizzy
9. Israel
10. Christine
11. Spellbound
12. Stargazer
13. Arabian Knights
14. The Killing Jar
15. This Wheel's On Fire

Exact Audio Copy V1.0 beta 2 from 29. April 2011

EAC extraction logfile from 7. August 2011, 12:33

Siouxsie And The Banshees / The Best Of Siouxsie And The Banshees CD1

Used drive : TDK CDRW4800B Adapter: 2 ID: 1

Read mode : Secure
Utilize accurate stream : Yes
Defeat audio cache : Yes
Make use of C2 pointers : No

Read offset correction : 6
Overread into Lead-In and Lead-Out : No
Fill up missing offset samples with silence : Yes
Delete leading and trailing silent blocks : No
Null samples used in CRC calculations : Yes
Used interface : Native Win32 interface for Win NT & 2000

Used output format : Internal WAV Routines
Sample format : 44.100 Hz; 16 Bit; Stereo


TOC of the extracted CD

Track | Start | Length | Start sector | End sector
––––––––––––––––––––––––––––-
1 | 0:00.00 | 3:49.54 | 0 | 17228
2 | 3:49.54 | 2:55.15 | 17229 | 30368
3 | 6:44.69 | 4:04.36 | 30369 | 48704
4 | 10:49.30 | 3:10.41 | 48705 | 62995
5 | 13:59.71 | 3:52.24 | 62996 | 80419
6 | 17:52.20 | 4:23.66 | 80420 | 100210
7 | 22:16.11 | 4:22.25 | 100211 | 119885
8 | 26:38.36 | 3:11.05 | 119886 | 134215
9 | 29:49.41 | 4:54.34 | 134216 | 156299
10 | 34:44.00 | 2:59.74 | 156300 | 169798
11 | 37:43.74 | 3:18.18 | 169799 | 184666
12 | 41:02.17 | 3:18.28 | 184667 | 199544
13 | 44:20.45 | 3:08.34 | 199545 | 213678
14 | 47:29.04 | 3:59.15 | 213679 | 231618
15 | 51:28.19 | 5:42.60 | 231619 | 257328


Range status and errors

Selected range

Filename E:\[# AvaxHome #]\Siouxsie And The Banshees - The Best Of Siouxsie And The Banshees CD1.wav

Peak level 100.0 %
Extraction speed 4.5 X
Range quality 100.0 %
Test CRC 28CF0847
Copy CRC 28CF0847
Copy OK

No errors occurred


AccurateRip summary

Track 1 accurately ripped (confidence 23) [541795C1] (AR v1)
Track 2 accurately ripped (confidence 23) [26E3FEAE] (AR v1)
Track 3 accurately ripped (confidence 24) [F619581B] (AR v1)
Track 4 accurately ripped (confidence 24) [8C325A91] (AR v1)
Track 5 accurately ripped (confidence 23) [E3732BAA] (AR v1)
Track 6 accurately ripped (confidence 24) [40DED2D4] (AR v1)
Track 7 accurately ripped (confidence 23) [C1DCC9AB] (AR v1)
Track 8 accurately ripped (confidence 21) [0D27277E] (AR v1)
Track 9 accurately ripped (confidence 22) [DD8A65DD] (AR v1)
Track 10 accurately ripped (confidence 21) [9E522C92] (AR v1)
Track 11 accurately ripped (confidence 21) [179584EB] (AR v1)
Track 12 accurately ripped (confidence 23) [DA0FF181] (AR v1)
Track 13 accurately ripped (confidence 23) [BEC01D11] (AR v1)
Track 14 accurately ripped (confidence 21) [2F7EEF3B] (AR v1)
Track 15 accurately ripped (confidence 16) [CE53BB10] (AR v1)

All tracks accurately ripped

End of status report

==== Log checksum FF50A06FFACAE9B7E7790A6E97BE088821062077A7EAEDB33E4047D33C9FE7FA ====

Tracklist CD2:
1. Spellbound (Extended 12" Version)
2. Songs From The Edge Of The World (Columbus Mix)
3. Kiss Them For Me (Kathak #2 Mix)
4. Peek-A-Boo (Silver Dollar Mix)
5. The Killing Jar (Lepidopteristic Mix)
6. Cities In Dust (Eruption Mix)
7. Dazzle (Glamour Mix)
8. Stargazer (Mambo Sun Remix)
9. Face To Face (Catatonic Mix)

Exact Audio Copy V1.0 beta 2 from 29. April 2011

EAC extraction logfile from 7. August 2011, 13:15

Siouxsie And The Banshees / The Best Of Siouxsie And The Banshees CD2

Used drive : TDK CDRW4800B Adapter: 2 ID: 1

Read mode : Secure
Utilize accurate stream : Yes
Defeat audio cache : Yes
Make use of C2 pointers : No

Read offset correction : 6
Overread into Lead-In and Lead-Out : No
Fill up missing offset samples with silence : Yes
Delete leading and trailing silent blocks : No
Null samples used in CRC calculations : Yes
Used interface : Native Win32 interface for Win NT & 2000

Used output format : Internal WAV Routines
Sample format : 44.100 Hz; 16 Bit; Stereo


TOC of the extracted CD

Track | Start | Length | Start sector | End sector
––––––––––––––––––––––––––––-
1 | 0:00.00 | 4:42.13 | 0 | 21162
2 | 4:42.13 | 7:37.04 | 21163 | 55441
3 | 12:19.17 | 9:46.13 | 55442 | 99404
4 | 22:05.30 | 8:12.56 | 99405 | 136360
5 | 30:18.11 | 8:07.59 | 136361 | 172944
6 | 38:25.70 | 6:48.69 | 172945 | 203613
7 | 45:14.64 | 7:05.37 | 203614 | 235525
8 | 52:20.26 | 7:20.31 | 235526 | 268556
9 | 59:40.57 | 4:53.11 | 268557 | 290542


Range status and errors

Selected range

Filename E:\[# AvaxHome #]\Siouxsie And The Banshees - The Best Of Siouxsie And The Banshees CD2.wav

Peak level 100.0 %
Extraction speed 3.6 X
Range quality 99.9 %
Test CRC 13C85A26
Copy CRC 13C85A26
Copy OK

No errors occurred


AccurateRip summary

Track 1 accurately ripped (confidence 11) [F21C9421] (AR v1)
Track 2 accurately ripped (confidence 11) [76A64F0C] (AR v1)
Track 3 accurately ripped (confidence 11) [21DA2DD6] (AR v1)
Track 4 accurately ripped (confidence 11) [1A107920] (AR v1)
Track 5 accurately ripped (confidence 11) [1987F300] (AR v1)
Track 6 accurately ripped (confidence 10) [89E98C84] (AR v1)
Track 7 accurately ripped (confidence 10) [1CE7C647] (AR v1)
Track 8 accurately ripped (confidence 11) [6338199B] (AR v1)
Track 9 accurately ripped (confidence 11) [3EE0980F] (AR v1)

All tracks accurately ripped

End of status report

==== Log checksum E6F73867EA61225DDC0A1A7E3AC8157A40B0C763B484515F96507F43636D2B92 ====