Tags
Language
Tags

Sonny Phillips - Sure 'Nuff & Black Magic! (1970) {Prestige-BGP CDBGPD 063 rel 1993}

Posted By: ruskaval
Sonny Phillips - Sure 'Nuff & Black Magic! (1970) {Prestige-BGP CDBGPD 063 rel 1993}

Sonny Phillips - Sure 'Nuff & Black Magic! (1970) {Prestige-BGP CDBGPD 063 rel 1993}
EAC rip (secure mode) | FLAC (tracks)+CUE+LOG -> 462 Mb | MP3 @320 -> 184 Mb
Full Artwork @ 300 dpi (png) -> 20 Mb | 5% repair rar
© 1969-70, 1993 Prestige / BGP Records / Ace Records | CDBGPD 063
Jazz / Soul Jazz / Organ

Phillips' 1969 date Sure 'Nuff and its 1970 follow-up, Black Magic – both of them precursors of the modern-day acid jazz sound – are featured on this two-fer release.
Sure 'Nuff: The debut set as leader by organist Sonny Phillips is refreshingly free of the usual clichéd funky licks copped off Jimmy Smith and Brother Jack McDuff albums. Very early in his career, the Alabama-born, Chicago-based Phillips trained on piano under Ahmad Jamal, and Jamal's characteristic style remains imprinted on Phillips' loose, easy-flowing solos. (There's a little Ramsey Lewis in there as well, especially on the swinging soul-jazz title track.) This lighter touch and less blues-dependent style gives Sure 'Nuff an intriguing and unusual sound that keeps it from sounding like just another soul-jazz album. At times, Phillips sounds like he's been listening to jazz-rock pioneers like the Al Kooper-led Blood, Sweat & Tears or even the very early (pre-wimpy) Chicago, because tracks like "Be Yourself" and "The Other Blues" subtly integrate rock backbeats and rhythm guitar into jazz forms. Sure 'Nuff isn't an undiscovered masterpiece or anything, but it's considerably more interesting than the average soul-jazz album from the late '60s.
Sonny Phillips - Sure 'Nuff & Black Magic! (1970) {Prestige-BGP CDBGPD 063 rel 1993}


Musicians

Sure 'Nuff (1969)


Sonny Phillips - organ
Virgil Jones - trumpet (tracks 1, 2 & 4)
Houston Person - tenor saxophone
Joe Jones - guitar
Bob Bushnell - electric bass
Bernard Purdie - drums

Black Magic! (1970

Sonny Phillips - organ, electric piano
Eddie Pazant - tenor saxophone
Melvin Sparks - guitar
Jimmy Lewis - bass
Ben Dixon - drums
Buddy Caldwell - conga

Tracklist

Sure 'Nuff

1 Sure 'Nuff, Sure 'Nuff
2 Be Yourself
3 Oleo
4 Mobile To Chicago
5 The Other Blues
Black Magic!
6 Make It Plain
7 Wakin' Up
8 Over The Rainbow
9 Bean Pie
10 I'm An Old Cowhand
11 The Brotherhood

Exact Audio Copy V1.3 from 2. September 2016

EAC extraction logfile from 17. February 2018, 12:34

Sonny Phillips / Sure Nuff/Black Magic

Used drive : PLEXTOR PX-891SAF Adapter: 1 ID: 0

Read mode : Secure
Utilize accurate stream : Yes
Defeat audio cache : Yes
Make use of C2 pointers : No

Read offset correction : 6
Overread into Lead-In and Lead-Out : No
Fill up missing offset samples with silence : Yes
Delete leading and trailing silent blocks : No
Null samples used in CRC calculations : Yes
Used interface : Native Win32 interface for Win NT & 2000
Gap handling : Appended to previous track

Used output format : User Defined Encoder
Selected bitrate : 896 kBit/s
Quality : High
Add ID3 tag : No
Command line compressor : C:\Program Files (x86)\Exact Audio Copy\Flac\flac.exe
Additional command line options : -8 -V -T "ARTIST=%artist%" -T "TITLE=%title%" -T "ALBUM=%albumtitle%" -T "DATE=%year%" -T "TRACKNUMBER=%tracknr%" -T "TOTALTRACKS=%numtracks%" -T "GENRE=%genre%" -T "ALBUMARTIST=%albumartist%" -T "ALBUM ARTIST=%albumartist%" -T "COMMENT=EAC Secure Mode, Test & Copy, AccurateRip, FLAC -8" %source%


TOC of the extracted CD

Track | Start | Length | Start sector | End sector
––––––––––––––––––––––––––––-
1 | 0:00.00 | 6:49.40 | 0 | 30714
2 | 6:49.40 | 4:35.65 | 30715 | 51404
3 | 11:25.30 | 7:48.52 | 51405 | 86556
4 | 19:14.07 | 7:31.38 | 86557 | 120419
5 | 26:45.45 | 9:38.67 | 120420 | 163836
6 | 36:24.37 | 9:52.13 | 163837 | 208249
7 | 46:16.50 | 7:15.32 | 208250 | 240906
8 | 53:32.07 | 2:24.20 | 240907 | 251726
9 | 55:56.27 | 7:27.30 | 251727 | 285281
10 | 63:23.57 | 6:50.53 | 285282 | 316084
11 | 70:14.35 | 8:35.22 | 316085 | 354731


Track 1

Filename E:\Musica\Sonny Phillips\Sonny Phillips - Sure Nuff & Black Magic (1993) [FLAC]\01 - Sure 'Nuff, Sure 'Nuff.wav

Pre-gap length 0:00:02.00

Peak level 100.0 %
Extraction speed 2.3 X
Track quality 100.0 %
Test CRC 882AD449
Copy CRC 882AD449
Cannot be verified as accurate (confidence 3) [49295410], AccurateRip returned [DF183B11] (AR v2)
Copy OK

Track 2

Filename E:\Musica\Sonny Phillips\Sonny Phillips - Sure Nuff & Black Magic (1993) [FLAC]\02 - Be Yourself.wav

Pre-gap length 0:00:02.08

Peak level 100.0 %
Extraction speed 1.9 X
Track quality 99.9 %
Test CRC E840A240
Copy CRC E840A240
Cannot be verified as accurate (confidence 3) [085DA3FA], AccurateRip returned [C33B88D8] (AR v2)
Copy OK

Track 3

Filename E:\Musica\Sonny Phillips\Sonny Phillips - Sure Nuff & Black Magic (1993) [FLAC]\03 - Oleo.wav

Pre-gap length 0:00:02.65

Peak level 100.0 %
Extraction speed 2.9 X
Track quality 100.0 %
Test CRC 4F165548
Copy CRC 4F165548
Cannot be verified as accurate (confidence 2) [557943E3], AccurateRip returned [8E49C569] (AR v2)
Copy OK

Track 4

Filename E:\Musica\Sonny Phillips\Sonny Phillips - Sure Nuff & Black Magic (1993) [FLAC]\04 - Mobile To Chicago.wav

Pre-gap length 0:00:03.05

Peak level 100.0 %
Extraction speed 2.6 X
Track quality 99.9 %
Test CRC 0E871F1D
Copy CRC 0E871F1D
Cannot be verified as accurate (confidence 2) [B02006C3], AccurateRip returned [90BC1A83] (AR v2)
Copy OK

Track 5

Filename E:\Musica\Sonny Phillips\Sonny Phillips - Sure Nuff & Black Magic (1993) [FLAC]\05 - The Other Blues.wav

Pre-gap length 0:00:02.35

Peak level 100.0 %
Extraction speed 3.5 X
Track quality 100.0 %
Test CRC 1C9FDCDD
Copy CRC 1C9FDCDD
Cannot be verified as accurate (confidence 2) [8F2589C3], AccurateRip returned [71DC074F] (AR v2)
Copy OK

Track 6

Filename E:\Musica\Sonny Phillips\Sonny Phillips - Sure Nuff & Black Magic (1993) [FLAC]\06 - Make It Plain.wav

Pre-gap length 0:00:03.57

Peak level 100.0 %
Extraction speed 3.7 X
Track quality 100.0 %
Test CRC 03E36B14
Copy CRC 03E36B14
Cannot be verified as accurate (confidence 2) [F94D0744], AccurateRip returned [81769F98] (AR v2)
Copy OK

Track 7

Filename E:\Musica\Sonny Phillips\Sonny Phillips - Sure Nuff & Black Magic (1993) [FLAC]\07 - Wakin' Up.wav

Pre-gap length 0:00:01.40

Peak level 100.0 %
Extraction speed 4.0 X
Track quality 100.0 %
Test CRC CAA09B3B
Copy CRC CAA09B3B
Cannot be verified as accurate (confidence 1) [FE93E721], AccurateRip returned [7178911F] (AR v2)
Copy OK

Track 8

Filename E:\Musica\Sonny Phillips\Sonny Phillips - Sure Nuff & Black Magic (1993) [FLAC]\08 - Over The Rainbow.wav

Pre-gap length 0:00:02.72

Peak level 42.1 %
Extraction speed 3.5 X
Track quality 100.0 %
Test CRC 925861C1
Copy CRC 925861C1
Cannot be verified as accurate (confidence 1) [CBC6D0EE], AccurateRip returned [8399E268] (AR v2)
Copy OK

Track 9

Filename E:\Musica\Sonny Phillips\Sonny Phillips - Sure Nuff & Black Magic (1993) [FLAC]\09 - Bean Pie.wav

Pre-gap length 0:00:05.12

Peak level 85.6 %
Extraction speed 4.2 X
Track quality 100.0 %
Test CRC EA8763FE
Copy CRC EA8763FE
Cannot be verified as accurate (confidence 1) [F500C686], AccurateRip returned [D423E478] (AR v2)
Copy OK

Track 10

Filename E:\Musica\Sonny Phillips\Sonny Phillips - Sure Nuff & Black Magic (1993) [FLAC]\10 - I'm An Old Cowhand.wav

Pre-gap length 0:00:03.65

Peak level 99.7 %
Extraction speed 3.7 X
Track quality 99.9 %
Test CRC E617541E
Copy CRC E617541E
Cannot be verified as accurate (confidence 1) [2935E557], AccurateRip returned [DA2BC9BF] (AR v2)
Copy OK

Track 11

Filename E:\Musica\Sonny Phillips\Sonny Phillips - Sure Nuff & Black Magic (1993) [FLAC]\11 - The Brotherhood.wav

Pre-gap length 0:00:02.30

Peak level 83.0 %
Extraction speed 4.0 X
Track quality 99.9 %
Test CRC 6B425E31
Copy CRC 6B425E31
Cannot be verified as accurate (confidence 1) [8CBF296D], AccurateRip returned [12A369EA] (AR v2)
Copy OK


No tracks could be verified as accurate
You may have a different pressing from the one(s) in the database

No errors occurred

End of status report

–– CUETools DB Plugin V2.1.6

[CTDB TOCID: LanX.SJcNCRfQgFkN8EzHkzWOMY-] found
Submit result: LanX.SJcNCRfQgFkN8EzHkzWOMY- has been confirmed
Track | CTDB Status
1 | (1/2) Accurately ripped
2 | (1/2) Accurately ripped
3 | (1/2) Accurately ripped
4 | (1/2) Accurately ripped
5 | (1/2) Accurately ripped
6 | (1/2) Accurately ripped
7 | (1/2) Accurately ripped
8 | (1/2) Accurately ripped
9 | (1/2) Accurately ripped
10 | (1/2) Accurately ripped
11 | (1/2) Accurately ripped


==== Log checksum 6EB4C0358E8F0D1965B49C72E7D3B78C56FC7FE0A33B1ED1ACFDDC80F0B85CD3 ====


Sonny Phillips - Sure 'Nuff & Black Magic! (1970) {Prestige-BGP CDBGPD 063 rel 1993}

Sonny Phillips - Sure 'Nuff & Black Magic! (1970) {Prestige-BGP CDBGPD 063 rel 1993}



===