Subcategories

Stanley Clarke - Jazz In The Garden (2009)

Posted By: ruskaval
Stanley Clarke - Jazz In The Garden (2009)

Stanley Clarke - Jazz In The Garden (2009)
EAC rip (secure mode) | FLAC+CUE+LOG -> 357 Mb | MP3 @320 -> 138 Mb
Full Artwork @ 300 dpi (jpg) -> 21 Mb
Heads Up / Roxboro | HUCD 3155

In a career that spans nearly four decades and includes gigs with Return to Forever, Rite of Strings and a variety of other solo and collaborative projects along the way, bassist Stanley Clarke - one of the most prominent voices in electric jazz and fusion - had seemingly covered every possible corner of the jazz landscape. But there was one avenue he had yet to explore.

"I had never done an acoustic bass record, ever," he says. "There's a long list of people on whose records I've played acoustic bass - Art Blakey, Dexter Gordon, Stan Getz, Joe Henderson and many others - but I'd never done an acoustic jazz trio record of my own. So I wanted to record one that would just feature the piano and the acoustic bass in a way that you could really hear the bass."

This long-overdue dream project becomes a reality with the release of Jazz In The Garden. For his first straightahead acoustic jazz trio recording, Clarke assembles two brilliant collaborators at the top of their respective games: pianist Hiromi Uehara and drummer Lenny White. Each represents a distinctly different generational and cultural perspective, but given the range and versatility of both, the net effect is superb. Indeed, the synergy resulting from all three of these luminaries makes for one of the most refreshing Stanley Clarke recordings in recent years.

In many ways, Jazz in the Garden is Stanley Clarke's way of reconnecting with a time much earlier in his career before his plunge into electric jazz - a time when he earned his stripes playing acoustic bass with some of the most enduring names in the annals of jazz. "There are times when you want to revisit the things that really established the foundation in your life," he says. "I spent many, many years studying acoustic bass, and many years playing in New York after I left Philadelphia in the late `60s. I played with everyone who was there at the time. It was a long time ago, but all that stuff from that period is what made me who I am. This record is my way of reconnecting with that time and that music."

Tracks
01 - Paradigm Shift (Election Day 2008)
02 - Sakura Sakura
03 - Sicilian Blue
04 - Take The Coltrane
05 - 3 Wrong Notes
06 - Someday My Prince Will Come
07 - Isotope
08 - Bass Folk Song No 5 & 6
09 - Global Tweak
10 - Solar
11 - Brain Training
12 - Under The Bridge

Exact Audio Copy V0.99 prebeta 4 from 23. January 2008

EAC extraction logfile from 8. June 2009, 18:42

Stanley Clarke / Jazz In the Garden

Used drive : PIONEER DVD-RW DVR-111L Adapter: 0 ID: 0

Read mode : Secure
Utilize accurate stream : Yes
Defeat audio cache : Yes
Make use of C2 pointers : No

Read offset correction : 48
Overread into Lead-In and Lead-Out : No
Fill up missing offset samples with silence : Yes
Delete leading and trailing silent blocks : No
Null samples used in CRC calculations : Yes
Used interface : Native Win32 interface for Win NT & 2000
Gap handling : Appended to previous track

Used output format : User Defined Encoder
Selected bitrate : 768 kBit/s
Quality : High
Add ID3 tag : No
Command line compressor : C:\Program Files\FLAC\flac.exe
Additional command line options : -8 -V -T "ARTIST=%a" -T "TITLE=%t" -T "ALBUM=%g" -T "DATE=%y" -T "TRACKNUMBER=%n" -T "GENRE=%m" -T "COMMENT=EAC FLAC -8" %s


TOC of the extracted CD

Track | Start | Length | Start sector | End sector
––––––––––––––––––––––––––––-
1 | 0:00.00 | 7:43.57 | 0 | 34781
2 | 7:43.57 | 5:33.08 | 34782 | 59764
3 | 13:16.65 | 4:48.43 | 59765 | 81407
4 | 18:05.33 | 3:30.30 | 81408 | 97187
5 | 21:35.63 | 5:47.64 | 97188 | 123276
6 | 27:23.52 | 4:56.35 | 123277 | 145511
7 | 32:20.12 | 5:27.53 | 145512 | 170089
8 | 37:47.65 | 4:02.71 | 170090 | 188310
9 | 41:50.61 | 3:43.61 | 188311 | 205096
10 | 45:34.47 | 5:14.00 | 205097 | 228646
11 | 50:48.47 | 4:52.57 | 228647 | 250603
12 | 55:41.29 | 5:32.05 | 250604 | 275508


Track 1

Filename C:\Stanley Clarke - Jazz In The Garden (2009)\01 - Paradigm Shift (Election Day 2008).wav

Pre-gap length 0:00:02.00

Peak level 99.8 %
Track quality 100.0 %
Test CRC 05D2C243
Copy CRC 05D2C243
Copy OK

Track 2

Filename C:\Stanley Clarke - Jazz In The Garden (2009)\02 - Sakura Sakura.wav

Pre-gap length 0:00:01.27

Peak level 99.7 %
Track quality 100.0 %
Test CRC 5636D0D0
Copy CRC 5636D0D0
Copy OK

Track 3

Filename C:\Stanley Clarke - Jazz In The Garden (2009)\03 - Sicilian Blue.wav

Pre-gap length 0:00:03.20

Peak level 99.5 %
Track quality 99.9 %
Test CRC 3ACF2E8B
Copy CRC 3ACF2E8B
Copy OK

Track 4

Filename C:\Stanley Clarke - Jazz In The Garden (2009)\04 - Take Yje Coltrane.wav

Pre-gap length 0:00:00.46

Peak level 99.2 %
Track quality 100.0 %
Test CRC EE8A1967
Copy CRC EE8A1967
Copy OK

Track 5

Filename C:\Stanley Clarke - Jazz In The Garden (2009)\05 - 3 Wrong Notes.wav

Pre-gap length 0:00:00.60

Peak level 98.6 %
Track quality 100.0 %
Test CRC D8751F61
Copy CRC D8751F61
Copy OK

Track 6

Filename C:\Stanley Clarke - Jazz In The Garden (2009)\06 - Someday My Prince Will Come.wav

Pre-gap length 0:00:01.14

Peak level 91.4 %
Track quality 100.0 %
Test CRC 7263F50A
Copy CRC 7263F50A
Copy OK

Track 7

Filename C:\Stanley Clarke - Jazz In The Garden (2009)\07 - Isotope.wav

Pre-gap length 0:00:03.50

Peak level 99.6 %
Track quality 100.0 %
Test CRC EBC7B092
Copy CRC EBC7B092
Copy OK

Track 8

Filename C:\Stanley Clarke - Jazz In The Garden (2009)\08 - Bass Folk Song No. 5&6.wav

Pre-gap length 0:00:00.47

Peak level 97.5 %
Track quality 100.0 %
Test CRC E59B51FB
Copy CRC E59B51FB
Copy OK

Track 9

Filename C:\Stanley Clarke - Jazz In The Garden (2009)\09 - Global Tweak.wav

Pre-gap length 0:00:01.43

Peak level 94.0 %
Track quality 99.9 %
Test CRC 59375811
Copy CRC 59375811
Copy OK

Track 10

Filename C:\Stanley Clarke - Jazz In The Garden (2009)\10 - Solar.wav

Pre-gap length 0:00:01.16

Peak level 98.8 %
Track quality 100.0 %
Test CRC 6943AAF1
Copy CRC 6943AAF1
Copy OK

Track 11

Filename C:\Stanley Clarke - Jazz In The Garden (2009)\11 - Brain Training.wav

Pre-gap length 0:00:01.48

Peak level 98.1 %
Track quality 100.0 %
Test CRC 4D112B3E
Copy CRC 4D112B3E
Copy OK

Track 12

Filename C:\Stanley Clarke - Jazz In The Garden (2009)\12 - Under The Bridge.wav

Pre-gap length 0:00:00.32

Peak level 99.5 %
Track quality 99.9 %
Test CRC 878A92E4
Copy CRC 878A92E4
Copy OK

No errors occurred

End of status report