Subcategories

Steve Hackett & Djabe - Summer Storms & Rocking Rivers (2017)

Posted By: Domestos
Steve Hackett & Djabe - Summer Storms & Rocking Rivers (2017)

Steve Hackett & Djabe - Summer Storms & Rocking Rivers (2017)
EAC Rip | FLAC (tracks+.cue, log) ~ 511.58 Mb + 59.71 Mb (Scans) | 1:18:57
Fusion, Folk Rock, Prog Rock, Jazz-Rock | Country: UK & Hungary | Label: Esoteric Antenna ‎- EANTCD21065

Esoteric Antenna is delighted to announce the release of a live album by legendary guitarist STEVE HACKETT and the gifted Hungarian group DJABE. “Summer Storms and Rocking Rivers” was captured at a concert in Bratislava in July 2011 and a concert in Budapest in November 2012. The music within this release features well known Steve Hackett solo material such as The Steppes and Ace of Wands, alongside legendary Genesis material such as Firth of Fifth, Blood on the Rooftops, In That Quiet Earth and Los Endos.

Djabe formed twenty years ago and are one of Hungary’s most acclaimed Jazz groups in the world. Playing a fascinating fusion of jazz and rock styles and featuring a line-up of Ferenc Kovács (vocals, trumpet, violin), Zoltán Kovács (keyboards), Attila Égerházi (guitar, percussion), Tamás Barabás (bass guitar) and Szilárd Banai (drums), Djabe have performed many concerts globally since 2002. In 2007 they began their association with Steve Hackett, who has appeared on the concert stage with them, performing both Djabe material and Genesis and Hackett solo material. At the Garana Jazz Festival in Romania, Steve Hackett & Djabe performed to an audience of 13,000 people, and now Summer Storms & Rocking Rivers captures wonderfully the magic of this collaboration on stage.

The DVD (NTSC – Region Free) included in this two disc set features a concert in Bratislava in July 2011 and also includes bonus features of a short documentary, the piece Jacuzzi / Overnight Sleeper, recorded in November 2013 with the Hungarian Symphony Orchestra and the promotional video of the song Tears for Peace.

Live in Bratislava at MMC Club, Slovakia, 14th July 2011.
Track 16 recorded in Budapest at IBS Stage, Hungary, 30th November 2012

Steve Hackett – Guitar, Vocals
Kovács Ferenc – Vocals, Trumpet, Violin
Kovács Zoltán – Keyboards
Égerházi Attila – Guitar, Percussion, Producer
Barabás Tamás – Bass Guitar, Mastered By, Mixed By, Producer
Banai Szilárd – Drums
Sipos András – samlper vocal
Rosta András – Producer
Gulli Briem – Drums in 16

Track List:
1 - City Of Habi (06:42)
2 - The Steppes (07:21)
3 - Butterfly (08:40)
4 - Scenes - Above Poland (07:56)
5 - Scenes - Sunset At The Seaside (01:17)
6 - Horizons (01:57)
7 - Ace Of Wands (03:38)
8 - Flowers Stillness (02:45)
9 - Rush For Ménes (08:12)
10 - Strange Places (03:34)
11 - Last Train To Istanbul (05:22)
12 - Firth Of Fifth (05:04)
13 - Summer Rain (01:06)
14 - In That Quiet Earth (04:45)
15 - Distant Dance (07:22)
16 - Los Endos (03:17)

Steve Hackett & Djabe - Summer Storms & Rocking Rivers (2017)

Exact Audio Copy V1.3 from 2. September 2016

EAC extraction logfile from 17. December 2017, 14:18

Djabe & Steve Hacket / Summer Storns & Rocking Rivers

Used drive : PLEXTOR DVDR PX-891SAF Adapter: 1 ID: 0

Read mode : Secure
Utilize accurate stream : Yes
Defeat audio cache : Yes
Make use of C2 pointers : No

Read offset correction : 6
Overread into Lead-In and Lead-Out : No
Fill up missing offset samples with silence : Yes
Delete leading and trailing silent blocks : No
Null samples used in CRC calculations : Yes
Used interface : Native Win32 interface for Win NT & 2000
Gap handling : Appended to previous track

Used output format : User Defined Encoder
Selected bitrate : 1024 kBit/s
Quality : High
Add ID3 tag : No
Command line compressor : C:\Program Files (x86)\Exact Audio Copy\Flac\flac.exe
Additional command line options : -0 -V -T "ARTIST=%artist%" -T "TITLE=%title%" -T "ALBUM=%albumtitle%" -T "DATE=%year%" -T "TRACKNUMBER=%tracknr%" -T "TOTALTRACKS=%numtracks%" -T "GENRE=%genre%" -T "COMMENT=Naftamusic Release!" %source%

TOC of the extracted CD

Track | Start | Length | Start sector | End sector
––––––––––––––––––––––––––––-
1 | 0:00.00 | 6:41.47 | 0 | 30121
2 | 6:41.47 | 7:21.26 | 30122 | 63222
3 | 14:02.73 | 8:39.60 | 63223 | 102207
4 | 22:42.58 | 7:56.14 | 102208 | 137921
5 | 30:38.72 | 1:16.44 | 137922 | 143665
6 | 31:55.41 | 1:57.14 | 143666 | 152454
7 | 33:52.55 | 3:37.53 | 152455 | 168782
8 | 37:30.33 | 2:44.53 | 168783 | 181135
9 | 40:15.11 | 8:11.65 | 181136 | 218025
10 | 48:27.01 | 3:33.65 | 218026 | 234065
11 | 52:00.66 | 5:22.35 | 234066 | 258250
12 | 57:23.26 | 5:04.33 | 258251 | 281083
13 | 62:27.59 | 1:06.13 | 281084 | 286046
14 | 63:33.72 | 4:44.47 | 286047 | 307393
15 | 68:18.44 | 7:22.17 | 307394 | 340560
16 | 75:40.61 | 3:16.68 | 340561 | 355328

Track 1

Filename E:\Nafta Releases\Djabe & Steve Hackett - Summer Storms And Rocking Rivers (2017)[FLAC] - Naftamusic\01 - City Of Habi.wav

Pre-gap length 0:00:02.00

Peak level 100.0 %
Extraction speed 3.3 X
Track quality 100.0 %
Test CRC 32F039F1
Copy CRC 32F039F1
Accurately ripped (confidence 3) [37EC51FE] (AR v2)
Copy OK

Track 2

Filename E:\Nafta Releases\Djabe & Steve Hackett - Summer Storms And Rocking Rivers (2017)[FLAC] - Naftamusic\02 - The Steppes.wav

Peak level 99.3 %
Extraction speed 3.8 X
Track quality 100.0 %
Test CRC 440780CA
Copy CRC 440780CA
Accurately ripped (confidence 3) [722D58A0] (AR v2)
Copy OK

Track 3

Filename E:\Nafta Releases\Djabe & Steve Hackett - Summer Storms And Rocking Rivers (2017)[FLAC] - Naftamusic\03 - Butterfly.wav

Peak level 99.1 %
Extraction speed 4.3 X
Track quality 100.0 %
Test CRC 0F84AE2B
Copy CRC 0F84AE2B
Accurately ripped (confidence 3) [7F5E3F35] (AR v2)
Copy OK

Track 4

Filename E:\Nafta Releases\Djabe & Steve Hackett - Summer Storms And Rocking Rivers (2017)[FLAC] - Naftamusic\04 - Scenes - Above Poland.wav

Peak level 100.0 %
Extraction speed 4.7 X
Track quality 100.0 %
Test CRC 82DB115A
Copy CRC 82DB115A
Accurately ripped (confidence 3) [418FA201] (AR v2)
Copy OK

Track 5

Filename E:\Nafta Releases\Djabe & Steve Hackett - Summer Storms And Rocking Rivers (2017)[FLAC] - Naftamusic\05 - Scenes - Sunset At The Seaside.wav

Peak level 98.9 %
Extraction speed 3.5 X
Track quality 100.0 %
Test CRC BDD10BE0
Copy CRC BDD10BE0
Accurately ripped (confidence 3) [B0796449] (AR v2)
Copy OK

Track 6

Filename E:\Nafta Releases\Djabe & Steve Hackett - Summer Storms And Rocking Rivers (2017)[FLAC] - Naftamusic\06 - Horizons.wav

Peak level 97.2 %
Extraction speed 2.8 X
Track quality 99.9 %
Test CRC 383654E6
Copy CRC 383654E6
Accurately ripped (confidence 3) [C9B47C98] (AR v2)
Copy OK

Track 7

Filename E:\Nafta Releases\Djabe & Steve Hackett - Summer Storms And Rocking Rivers (2017)[FLAC] - Naftamusic\07 - Ace Of Wands.wav

Peak level 74.1 %
Extraction speed 4.8 X
Track quality 100.0 %
Test CRC A7AFD52B
Copy CRC A7AFD52B
Accurately ripped (confidence 3) [746F1013] (AR v2)
Copy OK

Track 8

Filename E:\Nafta Releases\Djabe & Steve Hackett - Summer Storms And Rocking Rivers (2017)[FLAC] - Naftamusic\08 - Flowers Stillness.wav

Peak level 83.4 %
Extraction speed 4.7 X
Track quality 100.0 %
Test CRC 4FC44D3F
Copy CRC 4FC44D3F
Accurately ripped (confidence 3) [DDBBB064] (AR v2)
Copy OK

Track 9

Filename E:\Nafta Releases\Djabe & Steve Hackett - Summer Storms And Rocking Rivers (2017)[FLAC] - Naftamusic\09 - Rush For Ménes.wav

Peak level 99.3 %
Extraction speed 5.5 X
Track quality 100.0 %
Test CRC F96DAE51
Copy CRC F96DAE51
Accurately ripped (confidence 3) [F0A46908] (AR v2)
Copy OK

Track 10

Filename E:\Nafta Releases\Djabe & Steve Hackett - Summer Storms And Rocking Rivers (2017)[FLAC] - Naftamusic\10 - Strange Places.wav

Peak level 52.8 %
Extraction speed 5.2 X
Track quality 100.0 %
Test CRC 092C9A58
Copy CRC 092C9A58
Accurately ripped (confidence 3) [5FD9E581] (AR v2)
Copy OK

Track 11

Filename E:\Nafta Releases\Djabe & Steve Hackett - Summer Storms And Rocking Rivers (2017)[FLAC] - Naftamusic\11 - Last Train To Istanbul.wav

Peak level 100.0 %
Extraction speed 5.7 X
Track quality 100.0 %
Test CRC 77574ABA
Copy CRC 77574ABA
Accurately ripped (confidence 3) [D53B589B] (AR v2)
Copy OK

Track 12

Filename E:\Nafta Releases\Djabe & Steve Hackett - Summer Storms And Rocking Rivers (2017)[FLAC] - Naftamusic\12 - Firth Of Fifth.wav

Peak level 98.4 %
Extraction speed 4.8 X
Track quality 99.9 %
Test CRC B63AD895
Copy CRC B63AD895
Accurately ripped (confidence 3) [78EC7C0A] (AR v2)
Copy OK

Track 13

Filename E:\Nafta Releases\Djabe & Steve Hackett - Summer Storms And Rocking Rivers (2017)[FLAC] - Naftamusic\13 - Summer Rain.wav

Peak level 72.4 %
Extraction speed 4.3 X
Track quality 100.0 %
Test CRC 4F45DF34
Copy CRC 4F45DF34
Accurately ripped (confidence 3) [750D5548] (AR v2)
Copy OK

Track 14

Filename E:\Nafta Releases\Djabe & Steve Hackett - Summer Storms And Rocking Rivers (2017)[FLAC] - Naftamusic\14 - In That Quiet Earth.wav

Peak level 99.7 %
Extraction speed 6.1 X
Track quality 100.0 %
Test CRC 480D935D
Copy CRC 480D935D
Accurately ripped (confidence 3) [207C8772] (AR v2)
Copy OK

Track 15

Filename E:\Nafta Releases\Djabe & Steve Hackett - Summer Storms And Rocking Rivers (2017)[FLAC] - Naftamusic\15 - Distant Dance.wav

Peak level 100.0 %
Extraction speed 5.7 X
Track quality 99.9 %
Test CRC EC600137
Copy CRC EC600137
Accurately ripped (confidence 3) [F0307285] (AR v2)
Copy OK

Track 16

Filename E:\Nafta Releases\Djabe & Steve Hackett - Summer Storms And Rocking Rivers (2017)[FLAC] - Naftamusic\16 - Los Endos.wav

Peak level 100.0 %
Extraction speed 4.6 X
Track quality 99.9 %
Test CRC BFB987A8
Copy CRC BFB987A8
Accurately ripped (confidence 3) [686457DC] (AR v2)
Copy OK

All tracks accurately ripped

No errors occurred

End of status report

==== Log checksum 96B36006E15D965EF074C4AD04A7EC17478422652E217CF03ED3F49617C04266 ====

All thanks go to the thoms01

More Music in My Blog
Follow My RSS Channel