Subcategories
Tags
Language
Tags

Igor Stravinsky - Oedipus Rex, Le Rossignol - conducted by Stravinsky (1987) {2CD Set, Disques Montaigne TCE8760 rec 1952-1955}

Posted By: ruskaval
Igor Stravinsky - Oedipus Rex, Le Rossignol - conducted by Stravinsky (1987) {2CD Set, Disques Montaigne TCE8760 rec 1952-1955}

Igor Stravinsky - Oedipus Rex, Le Rossignol - conducted by Stravinsky (1987) {2CD Set, Disques Montaigne TCE8760 rec 1952-1955}
XLD rip (secure mode) | FLAC (tracks)+CUE+LOG -> 565 Mb | MP3 @320 -> 279 Mb
Full Artwork @ 600 dpi (jpg) -> 337 Mb | 5% repair rar
© 1952-55, 1987 Disques Montaigne | TCE 8760
Classical / Neo-Classical / Orchestral / Early 20th Century / Historical

Stravinsky:
''Oedipus Rex,'' with Leopold Simoneau, Eugenia Zareska, Bernard Cottret, Jean Cocteau.
''Scenes de Ballet.'' Orchestre National, conducted by Stravinsky, 1952.
''Le Rossignol,'' with Janine Micheau, Jean Giraudeau, Michel Roux. Orchestre National, conducted by Andre Cluytens, 1955.
Igor Stravinsky - Oedipus Rex, Le Rossignol - conducted by Stravinsky (1987) {2CD Set, Disques Montaigne TCE8760 rec 1952-1955}

Igor Stravinsky - Oedipus Rex, Le Rossignol - conducted by Stravinsky (1987) {2CD Set, Disques Montaigne TCE8760 rec 1952-1955}

Igor Stravinsky - Oedipus Rex, Le Rossignol - conducted by Stravinsky (1987) {2CD Set, Disques Montaigne TCE8760 rec 1952-1955}


Works on This Recording

CD 1

01 Annonce Radio

Oedipus Rex
02 Prologue Jean Cocteau
03 Act I
04 Act II

05 Scenes de ballet

Oedipe: Léopold Simoneau
Jocaste: Eugenia Zareska
Créon: Berard Cottret
Tirésias: Gérard Serkoyan
le Berger: Michel Hamel
le messager: Georges Abdoun
récitant: Jean Cocteau
Choeurs de la Radio-Diffusion Française
Orchestre National
conducted by
Igor Stravinsky

Recorded live, 19 May 1952, Théâtre des Champs-Elysées, Paris

Igor Stravinsky - Oedipus Rex, Le Rossignol - conducted by Stravinsky (1987) {2CD Set, Disques Montaigne TCE8760 rec 1952-1955}


CD 2

Le Rossignol
01 Act I
02 Act II
03 Act III

le Rossignol: Janine Micheau
la Cuisinière: Geneviève Moizan
la Mort: Christian Gayraud
l'Empereur: Lucien Lovano
le Pêcheur: Jean Giraudeau
le Chambellan: Michel Roux
le Bonze et un Envoyé japonais: Bernard Cottret
un autre Envoyé japonais: Camille Maurane
Les trois voix: Claudine Collart (soprano), Christine Gauraud (alto), Joseph Peyron (tenor)
Choeurs de la Radiodiffusion Télévision Française
Orchestre National
conducted by
André Cluytens

Recorded live, 24 March 1955, Théâtre des Champs-Elysées, Paris

Igor Stravinsky - Oedipus Rex, Le Rossignol - conducted by Stravinsky (1987) {2CD Set, Disques Montaigne TCE8760 rec 1952-1955}


X Lossless Decoder version 20141129a (148.2)

XLD extraction logfile from 2015-11-18 19:59:06 +0100

Igor Stravinsky/André Cluytens/Jean Cocteau / Igor Stravinsky - Oedipus Rex • Le Rossignol - Direction, Igor Stravinsky & André Cluytens • Jean Cocteau, Récitant - Les Grands concerts inédits du Théâtre des Champs-Elysées [Montaigne]

Used drive : MATSHITA CD-RW CW-8124 (revision DACK)
Media type : Pressed CD

Ripper mode : XLD Secure Ripper
Disable audio cache : OK for the drive with a cache less than 1375KiB
Make use of C2 pointers : NO
Read offset correction : 102
Max retry count : 100
Gap status : Analyzed, Appended (except HTOA)

TOC of the extracted CD
Track | Start | Length | Start sector | End sector
––––––––––––––––––––––––––––-
1 | 00:00:00 | 01:26:05 | 0 | 6454
2 | 01:26:05 | 01:02:63 | 6455 | 11167
3 | 02:28:68 | 23:56:32 | 11168 | 118899
4 | 26:25:25 | 25:01:33 | 118900 | 231507
5 | 51:26:58 | 16:23:00 | 231508 | 305232

AccurateRip Summary (DiscID: 000a45f0-003592a9-400fe505)
Track 01 : OK (v1+v2, confidence 2/2)
Track 02 : OK (v1+v2, confidence 2/2)
Track 03 : OK (v2, confidence 1/2)
Track 04 : OK (v1+v2, confidence 2/2)
Track 05 : OK (v2, confidence 1/2)
->All tracks accurately ripped.

All Tracks
Album gain : -3.56 dB
Peak : 0.975464
Statistics
Read error : 0
Jitter error (maybe fixed) : 0
Retry sector count : 0
Damaged sector count : 0

Track 01
Filename : /Igor Stravinsky - Oedipus Rex • Le Rossignol - Direction, Igor Stravinsky & André Cluytens • Jean Cocteau, Récitant - Les Grands concerts inédits du Théâtre des Champs-Elysées [Montaigne]/CD 1/01 Annonce Radio.flac
Pre-gap length : 00:02:00

Track gain : -3.88 dB
Peak : 0.767242
CRC32 hash (test run) : A0EBF798
CRC32 hash : A0EBF798
CRC32 hash (skip zero) : 84E3F407
AccurateRip v1 signature : 415F7C82
AccurateRip v2 signature : 92D700D6
->Accurately ripped (v1+v2, confidence 1+1/2)
Statistics
Read error : 0
Jitter error (maybe fixed) : 0
Retry sector count : 0
Damaged sector count : 0

Track 02
Filename : /Igor Stravinsky - Oedipus Rex • Le Rossignol - Direction, Igor Stravinsky & André Cluytens • Jean Cocteau, Récitant - Les Grands concerts inédits du Théâtre des Champs-Elysées [Montaigne]/CD 1/02 Prologue Jean Cocteau.flac
Pre-gap length : 00:26:60

Track gain : -2.36 dB
Peak : 0.870819
CRC32 hash (test run) : C9E06EA1
CRC32 hash : C9E06EA1
CRC32 hash (skip zero) : 34698958
AccurateRip v1 signature : F2C5B10C
AccurateRip v2 signature : EA191ADE
->Accurately ripped (v1+v2, confidence 1+1/2)
Statistics
Read error : 0
Jitter error (maybe fixed) : 0
Retry sector count : 0
Damaged sector count : 0

Track 03
Filename : /Igor Stravinsky - Oedipus Rex • Le Rossignol - Direction, Igor Stravinsky & André Cluytens • Jean Cocteau, Récitant - Les Grands concerts inédits du Théâtre des Champs-Elysées [Montaigne]/CD 1/03 Oedipus Rex: Act I.flac

Track gain : -3.52 dB
Peak : 0.955963
CRC32 hash (test run) : 4B90CAA0
CRC32 hash : 4B90CAA0
CRC32 hash (skip zero) : 7D09F07F
AccurateRip v1 signature : 509207E2
AccurateRip v2 signature : BC5BFB63
->Accurately ripped (v2, confidence 1/2)
Statistics
Read error : 0
Jitter error (maybe fixed) : 0
Retry sector count : 0
Damaged sector count : 0

Track 04
Filename : /Igor Stravinsky - Oedipus Rex • Le Rossignol - Direction, Igor Stravinsky & André Cluytens • Jean Cocteau, Récitant - Les Grands concerts inédits du Théâtre des Champs-Elysées [Montaigne]/CD 1/04 Oedipus Rex: Act II.flac

Track gain : -3.20 dB
Peak : 0.883820
CRC32 hash (test run) : 6D4C46D8
CRC32 hash : 6D4C46D8
CRC32 hash (skip zero) : EC702B38
AccurateRip v1 signature : 83F9C11C
AccurateRip v2 signature : CE1645A8
->Accurately ripped (v1+v2, confidence 1+1/2)
Statistics
Read error : 0
Jitter error (maybe fixed) : 0
Retry sector count : 0
Damaged sector count : 0

Track 05
Filename : /Igor Stravinsky - Oedipus Rex • Le Rossignol - Direction, Igor Stravinsky & André Cluytens • Jean Cocteau, Récitant - Les Grands concerts inédits du Théâtre des Champs-Elysées [Montaigne]/CD 1/05 Scenes de ballet.flac
Pre-gap length : 00:07:50

Track gain : -4.21 dB
Peak : 0.975464
CRC32 hash (test run) : 6FDD64F9
CRC32 hash : 6FDD64F9
CRC32 hash (skip zero) : 34AD0F7A
AccurateRip v1 signature : DC6D89E3
AccurateRip v2 signature : BD3AACF4
->Accurately ripped (v2, confidence 1/2)
Statistics
Read error : 0
Jitter error (maybe fixed) : 0
Retry sector count : 0
Damaged sector count : 0

No errors occurred

End of status report

––-BEGIN XLD SIGNATURE––-
qh9R0Ked.eY3HJIROCrw4wyirS7a3WuToRs97q5.z8XJgK0PruDcXhYibjRXaPCzCE8blCUzXLhuc2iVE1R_NktavJtwwkmUZ9hQQnO
––-END XLD SIGNATURE––-
X Lossless Decoder version 20141129a (148.2)

XLD extraction logfile from 2015-11-18 23:16:15 +0100

Igor Stravinsky/André Cluytens/Jean Cocteau / Igor Stravinsky - Oedipus Rex • Le Rossignol - Direction, Igor Stravinsky & André Cluytens • Jean Cocteau, Récitant - Les Grands concerts inédits du Théâtre des Champs-Elysées [Montaigne]

Used drive : MATSHITA CD-RW CW-8124 (revision DACK)
Media type : Pressed CD

Ripper mode : XLD Secure Ripper
Disable audio cache : OK for the drive with a cache less than 1375KiB
Make use of C2 pointers : NO
Read offset correction : 102
Max retry count : 100
Gap status : Analyzed, Appended (except HTOA)

TOC of the extracted CD
Track | Start | Length | Start sector | End sector
––––––––––––––––––––––––––––-
1 | 00:00:00 | 17:27:68 | 0 | 78592
2 | 17:27:68 | 15:51:40 | 78593 | 149957
3 | 33:19:33 | 15:00:67 | 149958 | 217524

AccurateRip Summary (DiscID: 0006ce7c-00168a29-130b5403)
Track 01 : OK (v1+v2, confidence 2/2)
Track 02 : OK (v1+v2, confidence 2/2)
Track 03 : OK (v1+v2, confidence 2/2)
->All tracks accurately ripped.

All Tracks
Album gain : -3.46 dB
Peak : 0.982086
Statistics
Read error : 0
Jitter error (maybe fixed) : 0
Retry sector count : 0
Damaged sector count : 0

Track 01
Filename : /Igor Stravinsky - Oedipus Rex • Le Rossignol - Direction, Igor Stravinsky & André Cluytens • Jean Cocteau, Récitant - Les Grands concerts inédits du Théâtre des Champs-Elysées [Montaigne]/CD 2/01 Le Rossignol: Act I.flac
Pre-gap length : 00:02:00

Track gain : -3.24 dB
Peak : 0.920837
CRC32 hash (test run) : D79C8116
CRC32 hash : D79C8116
CRC32 hash (skip zero) : 63EA6826
AccurateRip v1 signature : 429F93C3
AccurateRip v2 signature : 7DB843CC
->Accurately ripped (v1+v2, confidence 1+1/2)
Statistics
Read error : 0
Jitter error (maybe fixed) : 0
Retry sector count : 0
Damaged sector count : 0

Track 02
Filename : /Igor Stravinsky - Oedipus Rex • Le Rossignol - Direction, Igor Stravinsky & André Cluytens • Jean Cocteau, Récitant - Les Grands concerts inédits du Théâtre des Champs-Elysées [Montaigne]/CD 2/02 Le Rossignol: Act II.flac

Track gain : -4.24 dB
Peak : 0.982086
CRC32 hash (test run) : 1D9280C3
CRC32 hash : 1D9280C3
CRC32 hash (skip zero) : 2D7DF469
AccurateRip v1 signature : 63D9B3BE
AccurateRip v2 signature : D3DC4713
->Accurately ripped (v1+v2, confidence 1+1/2)
Statistics
Read error : 0
Jitter error (maybe fixed) : 0
Retry sector count : 0
Damaged sector count : 0

Track 03
Filename : /Igor Stravinsky - Oedipus Rex • Le Rossignol - Direction, Igor Stravinsky & André Cluytens • Jean Cocteau, Récitant - Les Grands concerts inédits du Théâtre des Champs-Elysées [Montaigne]/CD 2/03 Le Rossignol: Act III.flac

Track gain : -2.44 dB
Peak : 0.934357
CRC32 hash (test run) : 3A54D453
CRC32 hash : 3A54D453
CRC32 hash (skip zero) : 1803B2C3
AccurateRip v1 signature : D582B948
AccurateRip v2 signature : B0276647
->Accurately ripped (v1+v2, confidence 1+1/2)
Statistics
Read error : 0
Jitter error (maybe fixed) : 0
Retry sector count : 0
Damaged sector count : 0

No errors occurred

End of status report

––-BEGIN XLD SIGNATURE––-
MfBHKh5GDHSoht.U358T4sDKpwg8SaVWKuGorbsTFI61dAEj8zI1jcrVqjpAow0pcLD8XKVGJY23iI8Er20vnRoO2b_knrVIaWKdg8m
––-END XLD SIGNATURE––-


Igor Stravinsky - Oedipus Rex, Le Rossignol - conducted by Stravinsky (1987) {2CD Set, Disques Montaigne TCE8760 rec 1952-1955}



===