Subcategories

Tamar Braxton - Calling All Lovers (Deluxe) (2015)

Posted By: aasana
Tamar Braxton - Calling All Lovers (Deluxe) (2015)

Tamar Braxton - Calling All Lovers (2015)
XLD Rip | FLAC (tracks+.cue) | 00:56:23 | 369,27 MB
Soul, Pop | Label: Epic - Streamline Records

Tamar Braxton's return to music in 2013 could not have gone much better. Love and War debuted at number two, featured a number one R&B hit and two additional singles that either scraped or peaked near the Top Ten. Three Grammy nominations resulted. Follow-up Calling All Lovers is wrapped up like it offers even more theatrics. Braxton isn't smiling in any of the photos contained in the booklet, which is made to look like a newspaper titled Tamartian Times. (Braxtonian Beacon was likely never considered; "Tamartian" is a nod to her followers). The album starts in scattered fashion with some neo-reggae, a retro-modern midtempo groove that evokes breakbeat-driven early-'90s productions, and a church-ified ballad. After those three songs, the album stabilizes, sliding between a number of plush ballads and sophisticated but bumping slow jams. Heartache prevails during the first half and crests with "Never," an authoritative and elegantly paced kiss-off of an inappreciative lover. The latter half is mostly about devotion and awe, while the back-to-back "Love It" (all booming bass, tapping keyboards, and rattling percussion) and "Must Be Good to You" (light and springy disco-funk) turn it up several degrees with Braxton offering firm declarations of her sexual power. Calling All Lovers doesn't merely offer more than what its packaging suggests. It might not feature a single as big as "Love and War," but it tops that song's parent album. [A Deluxe Edition added two bonus tracks, "S.O.N." and "Coming Home."]

Tracks:

01. Angels & Demons (3:05)
02. Catfish (3:33)
03. Simple Things (4:18)
04. Broken Record (4:08)
05. Never (3:08)
06. Circles (3:23)
07. If 1 Don't Have You (4:15)
08. Raise The Bar (3:38)
09. 1 Love You (2:20)
10. Makin' Love (3:44)
11. Love It (2:30)
12. Must Be Good To You (3:10)
13. Free Failin' (3:35)
14. King (3:28)
15. SON. (3:04)
16. Coming Home (4:40)

X Lossless Decoder version 20181019 (151.1)

XLD extraction logfile from 2019-08-09 16:18:56 -0700

Tamar Braxton / Calling All Lovers

Used drive : PIONEER BD-RW BDR-XD05 (revision 3.10)
Media type : Pressed CD

Ripper mode : XLD Secure Ripper
Disable audio cache : OK for the drive with a cache less than 1375KiB
Make use of C2 pointers : NO
Read offset correction : 667
Max retry count : 100
Gap status : Analyzed, Appended (except HTOA)

TOC of the extracted CD
Track | Start | Length | Start sector | End sector
––––––––––––––––––––––––––––-
1 | 00:00:00 | 03:05:67 | 0 | 13941
2 | 03:05:67 | 03:35:35 | 13942 | 30101
3 | 06:41:27 | 04:20:24 | 30102 | 49625
4 | 11:01:51 | 04:09:07 | 49626 | 68307
5 | 15:10:58 | 03:09:32 | 68308 | 82514
6 | 18:20:15 | 03:24:40 | 82515 | 97854
7 | 21:44:55 | 04:14:24 | 97855 | 116928
8 | 25:59:04 | 03:43:01 | 116929 | 133654
9 | 29:42:05 | 02:22:00 | 133655 | 144304
10 | 32:04:05 | 03:44:48 | 144305 | 161152
11 | 35:48:53 | 02:30:08 | 161153 | 172410
12 | 38:18:61 | 03:11:68 | 172411 | 186803
13 | 41:30:54 | 03:36:57 | 186804 | 203060
14 | 45:07:36 | 03:30:12 | 203061 | 218822
15 | 48:37:48 | 03:04:45 | 218823 | 232667
16 | 51:42:18 | 04:41:52 | 232668 | 253794

AccurateRip Summary (DiscID: 00210cc0-018a78fc-c20d3710)
Track 01 : OK (v2, confidence 1/1)
Track 02 : OK (v2, confidence 1/1)
Track 03 : OK (v2, confidence 1/1)
Track 04 : OK (v2, confidence 1/1)
Track 05 : OK (v2, confidence 1/1)
Track 06 : OK (v2, confidence 1/1)
Track 07 : OK (v2, confidence 1/1)
Track 08 : OK (v2, confidence 1/1)
Track 09 : OK (v2, confidence 1/1)
Track 10 : OK (v2, confidence 1/1)
Track 11 : OK (v2, confidence 1/1)
Track 12 : OK (v2, confidence 1/1)
Track 13 : OK (v2, confidence 1/1)
Track 14 : OK (v2, confidence 1/1)
Track 15 : OK (v2, confidence 1/1)
Track 16 : OK (v2, confidence 1/1)
->All tracks accurately ripped.

All Tracks
Album gain : -8.53 dB
Peak : 0.999969
Statistics
Read error : 0
Jitter error (maybe fixed) : 0
Retry sector count : 0
Damaged sector count : 0

Track 01
Filename : /Volumes/Hollywood and Vine/Rips/Tamar Braxton - Calling All Lovers (2015) [FLAC]/01 Angels & Demons.flac
Pre-gap length : 00:02:00

Track gain : -8.88 dB
Peak : 0.999969
CRC32 hash (test run) : AAF3EBE8
CRC32 hash : AAF3EBE8
CRC32 hash (skip zero) : DFA46B6D
AccurateRip v1 signature : 30BE3051
AccurateRip v2 signature : E1DF14E9
->Accurately ripped (v2, confidence 1/1)
Statistics
Read error : 0
Jitter error (maybe fixed) : 0
Retry sector count : 0
Damaged sector count : 0

Track 02
Filename : /Volumes/Hollywood and Vine/Rips/Tamar Braxton - Calling All Lovers (2015) [FLAC]/02 Catfish.flac

Track gain : -9.82 dB
Peak : 0.999969
CRC32 hash (test run) : 7A73C79A
CRC32 hash : 7A73C79A
CRC32 hash (skip zero) : E05DE72E
AccurateRip v1 signature : 5A055E85
AccurateRip v2 signature : B6D65123
->Accurately ripped (v2, confidence 1/1)
Statistics
Read error : 0
Jitter error (maybe fixed) : 0
Retry sector count : 0
Damaged sector count : 0

Track 03
Filename : /Volumes/Hollywood and Vine/Rips/Tamar Braxton - Calling All Lovers (2015) [FLAC]/03 Simple Things.flac

Track gain : -8.92 dB
Peak : 0.999969
CRC32 hash (test run) : A9552D02
CRC32 hash : A9552D02
CRC32 hash (skip zero) : 10943E81
AccurateRip v1 signature : 37CD64F2
AccurateRip v2 signature : 11BD1A01
->Accurately ripped (v2, confidence 1/1)
Statistics
Read error : 0
Jitter error (maybe fixed) : 0
Retry sector count : 0
Damaged sector count : 0

Track 04
Filename : /Volumes/Hollywood and Vine/Rips/Tamar Braxton - Calling All Lovers (2015) [FLAC]/04 Broken Record.flac

Track gain : -7.64 dB
Peak : 0.998993
CRC32 hash (test run) : 3426B81B
CRC32 hash : 3426B81B
CRC32 hash (skip zero) : 0D9D8A25
AccurateRip v1 signature : 8F4BC6CC
AccurateRip v2 signature : E128B50C
->Accurately ripped (v2, confidence 1/1)
Statistics
Read error : 0
Jitter error (maybe fixed) : 0
Retry sector count : 0
Damaged sector count : 0

Track 05
Filename : /Volumes/Hollywood and Vine/Rips/Tamar Braxton - Calling All Lovers (2015) [FLAC]/05 Never.flac

Track gain : -8.64 dB
Peak : 0.998993
CRC32 hash (test run) : 77D71667
CRC32 hash : 77D71667
CRC32 hash (skip zero) : 7251E5E9
AccurateRip v1 signature : 4B5209BA
AccurateRip v2 signature : E5081464
->Accurately ripped (v2, confidence 1/1)
Statistics
Read error : 0
Jitter error (maybe fixed) : 0
Retry sector count : 0
Damaged sector count : 0

Track 06
Filename : /Volumes/Hollywood and Vine/Rips/Tamar Braxton - Calling All Lovers (2015) [FLAC]/06 Circles.flac

Track gain : -9.28 dB
Peak : 0.998993
CRC32 hash (test run) : 52C351EC
CRC32 hash : 52C351EC
CRC32 hash (skip zero) : 8226513A
AccurateRip v1 signature : 19499333
AccurateRip v2 signature : D642E0D3
->Accurately ripped (v2, confidence 1/1)
Statistics
Read error : 0
Jitter error (maybe fixed) : 0
Retry sector count : 0
Damaged sector count : 0

Track 07
Filename : /Volumes/Hollywood and Vine/Rips/Tamar Braxton - Calling All Lovers (2015) [FLAC]/07 If I Don't Have You.flac

Track gain : -10.15 dB
Peak : 0.998993
CRC32 hash (test run) : B09C793D
CRC32 hash : B09C793D
CRC32 hash (skip zero) : 43B44D4E
AccurateRip v1 signature : AF47373F
AccurateRip v2 signature : CF15AD28
->Accurately ripped (v2, confidence 1/1)
Statistics
Read error : 0
Jitter error (maybe fixed) : 0
Retry sector count : 0
Damaged sector count : 0

Track 08
Filename : /Volumes/Hollywood and Vine/Rips/Tamar Braxton - Calling All Lovers (2015) [FLAC]/08 Raise the Bar.flac

Track gain : -6.33 dB
Peak : 0.998993
CRC32 hash (test run) : 84DDA90D
CRC32 hash : 84DDA90D
CRC32 hash (skip zero) : F1002DC2
AccurateRip v1 signature : AFE3F8F8
AccurateRip v2 signature : BF3C77C2
->Accurately ripped (v2, confidence 1/1)
Statistics
Read error : 0
Jitter error (maybe fixed) : 0
Retry sector count : 0
Damaged sector count : 0

Track 09
Filename : /Volumes/Hollywood and Vine/Rips/Tamar Braxton - Calling All Lovers (2015) [FLAC]/09 I Love You.flac

Track gain : -7.89 dB
Peak : 0.999969
CRC32 hash (test run) : A0FFC66F
CRC32 hash : A0FFC66F
CRC32 hash (skip zero) : 7C5D9870
AccurateRip v1 signature : 23B753A1
AccurateRip v2 signature : B5671974
->Accurately ripped (v2, confidence 1/1)
Statistics
Read error : 0
Jitter error (maybe fixed) : 0
Retry sector count : 0
Damaged sector count : 0

Track 10
Filename : /Volumes/Hollywood and Vine/Rips/Tamar Braxton - Calling All Lovers (2015) [FLAC]/10 Makin' Love.flac

Track gain : -7.22 dB
Peak : 0.998993
CRC32 hash (test run) : 7DA42C88
CRC32 hash : 7DA42C88
CRC32 hash (skip zero) : AF2A2403
AccurateRip v1 signature : DDAC92DE
AccurateRip v2 signature : C6AFD41E
->Accurately ripped (v2, confidence 1/1)
Statistics
Read error : 0
Jitter error (maybe fixed) : 0
Retry sector count : 0
Damaged sector count : 0

Track 11
Filename : /Volumes/Hollywood and Vine/Rips/Tamar Braxton - Calling All Lovers (2015) [FLAC]/11 Love It.flac

Track gain : -7.51 dB
Peak : 0.998993
CRC32 hash (test run) : E8409624
CRC32 hash : E8409624
CRC32 hash (skip zero) : 56CEDB32
AccurateRip v1 signature : DD3347A4
AccurateRip v2 signature : 529368F7
->Accurately ripped (v2, confidence 1/1)
Statistics
Read error : 0
Jitter error (maybe fixed) : 0
Retry sector count : 0
Damaged sector count : 0

Track 12
Filename : /Volumes/Hollywood and Vine/Rips/Tamar Braxton - Calling All Lovers (2015) [FLAC]/12 Must Be Good to You.flac

Track gain : -8.92 dB
Peak : 0.998993
CRC32 hash (test run) : D1DB8EEF
CRC32 hash : D1DB8EEF
CRC32 hash (skip zero) : F1D04E38
AccurateRip v1 signature : 48363E4A
AccurateRip v2 signature : 35438E19
->Accurately ripped (v2, confidence 1/1)
Statistics
Read error : 0
Jitter error (maybe fixed) : 0
Retry sector count : 0
Damaged sector count : 0

Track 13
Filename : /Volumes/Hollywood and Vine/Rips/Tamar Braxton - Calling All Lovers (2015) [FLAC]/13 Free Fallin'.flac

Track gain : -8.84 dB
Peak : 0.998993
CRC32 hash (test run) : 73D96E78
CRC32 hash : 73D96E78
CRC32 hash (skip zero) : 605D8538
AccurateRip v1 signature : 12B2EC66
AccurateRip v2 signature : 8687D2F4
->Accurately ripped (v2, confidence 1/1)
Statistics
Read error : 0
Jitter error (maybe fixed) : 0
Retry sector count : 0
Damaged sector count : 0

Track 14
Filename : /Volumes/Hollywood and Vine/Rips/Tamar Braxton - Calling All Lovers (2015) [FLAC]/14 King.flac

Track gain : -8.13 dB
Peak : 0.999969
CRC32 hash (test run) : D85E84CD
CRC32 hash : D85E84CD
CRC32 hash (skip zero) : A29FD56A
AccurateRip v1 signature : D190B156
AccurateRip v2 signature : 6128EE4C
->Accurately ripped (v2, confidence 1/1)
Statistics
Read error : 0
Jitter error (maybe fixed) : 0
Retry sector count : 0
Damaged sector count : 0

Track 15
Filename : /Volumes/Hollywood and Vine/Rips/Tamar Braxton - Calling All Lovers (2015) [FLAC]/15 S.O.N..flac

Track gain : -8.54 dB
Peak : 0.998993
CRC32 hash (test run) : E6823C19
CRC32 hash : E6823C19
CRC32 hash (skip zero) : 8BB8DB49
AccurateRip v1 signature : 7B2E16AA
AccurateRip v2 signature : 376CA8DF
->Accurately ripped (v2, confidence 1/1)
Statistics
Read error : 0
Jitter error (maybe fixed) : 0
Retry sector count : 0
Damaged sector count : 0

Track 16
Filename : /Volumes/Hollywood and Vine/Rips/Tamar Braxton - Calling All Lovers (2015) [FLAC]/16 Coming Home.flac

Track gain : -7.54 dB
Peak : 0.998993
CRC32 hash (test run) : EB7EF1C4
CRC32 hash : EB7EF1C4
CRC32 hash (skip zero) : 07B4C0C5
AccurateRip v1 signature : 6A680933
AccurateRip v2 signature : 860D7B8E
->Accurately ripped (v2, confidence 1/1)
Statistics
Read error : 0
Jitter error (maybe fixed) : 0
Retry sector count : 0
Damaged sector count : 0

No errors occurred

End of status report

––-BEGIN XLD SIGNATURE––-
EPEjeLQeFKyYBvJrriti1uvnYKedx7wTSWgPaaRj2Dtgzl9yHza98_LLpDOCO6khsTMFXf4D9Q8pWAu8_ygygyPdiSwKGG33kaENr50
––-END XLD SIGNATURE––-