Subcategories

The Beach Boys - Lost and Found (1961-1962) [DCC DZS-054, 1991] RESTORED

Posted By: Rehabilly
The Beach Boys - Lost and Found (1961-1962) [DCC DZS-054, 1991] RESTORED

The Beach Boys - Lost & Found: 1961-1962 (CD 1991)
WV+CUE+LOG or MP3 CBR 320 | 37:57 min | 182 or 84 MB
The original session masters were used in the making of this CD.

Before securing a deal with Capitol, the Beach Boys made their first inroads into the music business with recordings for several tiny L.A. labels in 1961 and 1962. This CD presents no less than 16 takes from these sessions, along with sundry studio chatter. Only a few of these cuts were issued at the time: their debut single "Surfin’" and a single issued under the pseudonym Kenny and the Cadets. This compilation is definitely for the serious fan; the sound is very basic and thin in comparison to their famous recordings, and there are multiple takes of most of the songs that can make for trying listening. That said, it is also at times a fascinating glimpse into history, showing the Beach Boys polishing their already impressive harmonies on early versions of "Surfer Girl" and "Surfin' Safari". Much of the rest of the material is a bit maudlin in nature, owing more to doo wop and teen idol balladry than the driving surf music that would make the group superstars in 1963. This compilation of mostly previously unissued material features songs from their very first recording session in October of 1961 and includes exhaustive liner notes.

~ Richie Unterberger, all media guide
Tracklist:

01. Luau [Prev. unissued]
02. Surfin' [Prev. unissued]
03. Studio Chatter
04. Surfin' [First attempt, prev. unissued]
05. Studio Chatter
06. Surfin' [Master take: X-301, Candix-301, 331, Capitol LP T-1081]
07. Studio Chatter
08. Luau [First attempt, prev. unissued]
09. Luau [Master take: B-side of X-301, and Candix-301, 331]
10. Barbie (Stereo)
11. What Is A Young Girl Made Of (Stereo) [Prev. unissued take]
12. Surfin' Safari [Prev. unissued take]
13. Studio Chatter
14. Surfin' Safari [Take approved as master]
15. Studio Chatter
16. Surfer Girl [Take approved as master]
17. Judy [Prev. unissued take]
18. Judy [Take approved as master]
19. Beach Boy Stomp (aka Karate) [Prev. unissued long version]
20. Surfin' Safari (Stereo) [An attempt at overdubbing, prev. unissued]
21. Lavender [Prev. unissued]

Original sessions produced by Hite and Dorinda Morgan
Original recordings engineered by Dino Lappis
Session player on tracks "10 & 11": Val Poliuto
Tracks:
"1 & 2" - Performing as "The Pendeltons" for the 1st time at Hite Morgan's home studio, Sep.15/1961
"3 - 9" - First Beach Boys recording session, October 3, 1961
"10-11" - Recording as "Kenny And The Cadets", March 8, 1962. Issued on Randy-422
"12-20" - Candix recording session of February 8, 1962
"21" - Demo from 1961

Compiled and mastered for compact disc by Steve Hoffman

EAC extraction logfile from 27. May 2007, 18:06 for CD
The Beach Boys / Lost & Found (1961-1962)

Used drive : _NEC CD-RW NR-9100A Adapter: 1 ID: 1
Read mode : Secure with NO C2, accurate stream, disable cache
Read offset correction : 685
Overread into Lead-In and Lead-Out : No

Used output format : C:\Program Files\EAC\flac.exe (User Defined Encoder)
320 kBit/s
Additional command line options : -8 -V -T "artist=%a" -T "title=%t" -T "album=%g" -T "date=%y" -T "tracknumber=%n" -T "genre=%m" %s

Other options :
Fill up missing offset samples with silence : Yes
Delete leading and trailing silent blocks : No
Installed external ASPI interface


Track 1
Filename C:\Downloads\The Beach Boys - Lost & Found (1961-1962)\The Beach Boys - Lost & Found (1961-1962)\01 - Luau (Prev. unissued).wav

Pre-gap length 0:00:02.00

Peak level 72.7 %
Track quality 100.0 %
Test CRC BCCEC96E
Copy CRC BCCEC96E
Copy OK

Track 2
Filename C:\Downloads\The Beach Boys - Lost & Found (1961-1962)\The Beach Boys - Lost & Found (1961-1962)\02 - Surfin' (Prev. unissued).wav

Pre-gap length 0:00:02.35

Peak level 91.8 %
Track quality 100.0 %
Test CRC FCE59830
Copy CRC FCE59830
Copy OK

Track 3
Filename C:\Downloads\The Beach Boys - Lost & Found (1961-1962)\The Beach Boys - Lost & Found (1961-1962)\03 - Studio Chatter.wav

Pre-gap length 0:00:04.05

Peak level 51.6 %
Track quality 99.3 %
Test CRC 1F886BB4
Copy CRC 1F886BB4
Copy OK

Track 4
Filename C:\Downloads\The Beach Boys - Lost & Found (1961-1962)\The Beach Boys - Lost & Found (1961-1962)\04 - Surfin' (First attempt, prev. unissued).wav

Peak level 83.0 %
Track quality 100.0 %
Test CRC E588EFF0
Copy CRC E588EFF0
Copy OK

Track 5
Filename C:\Downloads\The Beach Boys - Lost & Found (1961-1962)\The Beach Boys - Lost & Found (1961-1962)\05 - Studio Chatter.wav

Pre-gap length 0:00:05.30

Peak level 51.5 %
Track quality 100.0 %
Test CRC C4679266
Copy CRC C4679266
Copy OK

Track 6
Filename C:\Downloads\The Beach Boys - Lost & Found (1961-1962)\The Beach Boys - Lost & Found (1961-1962)\06 - Surfin' (Master take- X-301, Candix-301, 331, Capitol LP T-1081).wav

Peak level 69.7 %
Track quality 100.0 %
Test CRC 05125187
Copy CRC 05125187
Copy OK

Track 7
Filename C:\Downloads\The Beach Boys - Lost & Found (1961-1962)\The Beach Boys - Lost & Found (1961-1962)\07 - Studio Chatter.wav

Pre-gap length 0:00:04.38

Peak level 94.6 %
Track quality 99.5 %
Test CRC B8AAEB0A
Copy CRC B8AAEB0A
Copy OK

Track 8
Filename C:\Downloads\The Beach Boys - Lost & Found (1961-1962)\The Beach Boys - Lost & Found (1961-1962)\08 - Luau (First attempt, prev. unissued).wav

Peak level 69.5 %
Track quality 100.0 %
Test CRC 31BF288B
Copy CRC 31BF288B
Copy OK

Track 9
Filename C:\Downloads\The Beach Boys - Lost & Found (1961-1962)\The Beach Boys - Lost & Found (1961-1962)\09 - Luau (Master take- 'B' side of X-301, and Candix-301, 331).wav

Pre-gap length 0:00:03.72

Peak level 59.1 %
Track quality 99.9 %
Test CRC F6A0CDE1
Copy CRC F6A0CDE1
Copy OK

Track 10
Filename C:\Downloads\The Beach Boys - Lost & Found (1961-1962)\The Beach Boys - Lost & Found (1961-1962)\10 - Barbie (Stereo).wav

Pre-gap length 0:00:04.05

Peak level 99.9 %
Track quality 100.0 %
Test CRC E263BBB4
Copy CRC E263BBB4
Copy OK

Track 11
Filename C:\Downloads\The Beach Boys - Lost & Found (1961-1962)\The Beach Boys - Lost & Found (1961-1962)\11 - What Is A Young Girl Made Of (Stereo) (Prev. unissued take).wav

Pre-gap length 0:00:03.27

Peak level 100.0 %
Track quality 100.0 %
Test CRC A87D88CB
Copy CRC A87D88CB
Copy OK

Track 12
Filename C:\Downloads\The Beach Boys - Lost & Found (1961-1962)\The Beach Boys - Lost & Found (1961-1962)\12 - Surfin' Safari (Prev. unissued take).wav

Pre-gap length 0:00:03.50

Peak level 95.0 %
Track quality 100.0 %
Test CRC 76A6C4E2
Copy CRC 76A6C4E2
Copy OK

Track 13
Filename C:\Downloads\The Beach Boys - Lost & Found (1961-1962)\The Beach Boys - Lost & Found (1961-1962)\13 - Studio Chatter.wav

Peak level 32.2 %
Track quality 100.0 %
Test CRC 81894511
Copy CRC 81894511
Copy OK

Track 14
Filename C:\Downloads\The Beach Boys - Lost & Found (1961-1962)\The Beach Boys - Lost & Found (1961-1962)\14 - Surfin' Safari (Take approved as master).wav

Peak level 89.7 %
Track quality 100.0 %
Test CRC D2BF4306
Copy CRC D2BF4306
Copy OK

Track 15
Filename C:\Downloads\The Beach Boys - Lost & Found (1961-1962)\The Beach Boys - Lost & Found (1961-1962)\15 - Studio Chatter.wav

Pre-gap length 0:00:02.43

Peak level 69.3 %
Track quality 100.0 %
Test CRC 6154FF5A
Copy CRC 6154FF5A
Copy OK

Track 16
Filename C:\Downloads\The Beach Boys - Lost & Found (1961-1962)\The Beach Boys - Lost & Found (1961-1962)\16 - Surfer Girl (Take approved as master).wav

Peak level 94.9 %
Track quality 100.0 %
Test CRC 899D5FC0
Copy CRC 899D5FC0
Copy OK

Track 17
Filename C:\Downloads\The Beach Boys - Lost & Found (1961-1962)\The Beach Boys - Lost & Found (1961-1962)\17 - Judy (Prev. unissued take).wav

Pre-gap length 0:00:02.25

Peak level 77.9 %
Track quality 100.0 %
Test CRC 8650BD95
Copy CRC 8650BD95
Copy OK

Track 18
Filename C:\Downloads\The Beach Boys - Lost & Found (1961-1962)\The Beach Boys - Lost & Found (1961-1962)\18 - Judy (Take approved as master).wav

Pre-gap length 0:00:06.08

Peak level 78.0 %
Track quality 100.0 %
Test CRC 225C33FB
Copy CRC 225C33FB
Copy OK

Track 19
Filename C:\Downloads\The Beach Boys - Lost & Found (1961-1962)\The Beach Boys - Lost & Found (1961-1962)\19 - Beach Boy Stomp (aka Karate) (Prev. unissued long version).wav

Pre-gap length 0:00:05.17

Peak level 100.0 %
Track quality 100.0 %
Test CRC ABB1D4F4
Copy CRC ABB1D4F4
Copy OK

Track 20
Filename C:\Downloads\The Beach Boys - Lost & Found (1961-1962)\The Beach Boys - Lost & Found (1961-1962)\20 - Surfin' Safari (Stereo) (An attempt at overdubbing, prev. unissued).wav

Pre-gap length 0:00:04.05

Peak level 100.0 %
Track quality 100.0 %
Test CRC 94577688
Copy CRC 94577688
Copy OK

Track 21
Filename C:\Downloads\The Beach Boys - Lost & Found (1961-1962)\The Beach Boys - Lost & Found (1961-1962)\21 - Lavender (Prev. unissued).wav

Pre-gap length 0:00:04.23

Peak level 88.8 %
Track quality 100.0 %
Test CRC 91FECD7A
Copy CRC 91FECD7A
Copy OK

No errors occured


End of status report


[Disc ID: 001a6454-019a09cb-2a08e515]
Track [ CRC ] Status
01 [aa6f9d37] (03/03) Accurately ripped as in pressing(s) #1
02 [267923c8] (03/03) Accurately ripped as in pressing(s) #1
03 [13155399] (03/03) Accurately ripped as in pressing(s) #1
04 [77e884ae] (03/03) Accurately ripped as in pressing(s) #1
05 [7d0fb803] (03/03) Accurately ripped as in pressing(s) #1
06 [c578d749] (03/03) Accurately ripped as in pressing(s) #1
07 [a142c833] (03/03) Accurately ripped as in pressing(s) #1
08 [d531ad7a] (03/03) Accurately ripped as in pressing(s) #1
09 [355a8f0e] (03/03) Accurately ripped as in pressing(s) #1
10 [8cab2d1d] (03/03) Accurately ripped as in pressing(s) #1
11 [4bb9fd90] (03/03) Accurately ripped as in pressing(s) #1
12 [55c124ee] (03/03) Accurately ripped as in pressing(s) #1
13 [0366b207] (03/03) Accurately ripped as in pressing(s) #1
14 [70d9b9f1] (03/03) Accurately ripped as in pressing(s) #1
15 [5e25419c] (03/03) Accurately ripped as in pressing(s) #1
16 [89ece68a] (03/03) Accurately ripped as in pressing(s) #1
17 [b1476552] (03/03) Accurately ripped as in pressing(s) #1
18 [e4e67886] (03/03) Accurately ripped as in pressing(s) #1
19 [7f46b9d3] (03/03) Accurately ripped as in pressing(s) #1
20 [6478e573] (03/03) Accurately ripped as in pressing(s) #1
21 [177c94e3] (03/03) Accurately ripped as in pressing(s) #1


BT Found & Repacked.
Thanks to the Original Releaser!


The Beach Boys - Lost and Found (1961-1962) [DCC DZS-054, 1991] RESTORED

Original Release Date: July 1991
Format: Compilation
Label: DCC Compact Classics
Catalog No.: DZS 054-2